<?xml version="1.0" standalone="no"?>
<!DOCTYPE svg PUBLIC "-//W3C//DTD SVG 1.1//EN" "http://www.w3.org/Graphics/SVG/1.1/DTD/svg11.dtd" >
<svg xmlns="http://www.w3.org/2000/svg" xmlns:xlink="http://www.w3.org/1999/xlink" version="1.1">
<metadata>
Created by FontForge 20161003 at Sat Sep  2 08:22:26 2017
 By www-data
Copyright (c) 2014 Indian Type Foundry (info@indiantypefoundry.com)
</metadata>
<defs>
<font id="PoppinsRegular" horiz-adv-x="275" >
  <font-face 
    font-family="PoppinsRegular"
    font-weight="400"
    font-stretch="normal"
    units-per-em="1000"
    panose-1="2 0 0 0 0 0 0 0 0 0"
    ascent="800"
    descent="-200"
    x-height="549"
    cap-height="693"
    bbox="-535 -439 2606 1076"
    underline-thickness="50"
    underline-position="-200"
    unicode-range="U+000D-F03E4"
  />
<missing-glyph horiz-adv-x="751" 
d="M235 646v-591h281v591h-281zM176 0v701h399v-701h-399z" />
    <glyph glyph-name="uniFB01" unicode="fi" horiz-adv-x="571" 
d="M186 595v-46h310v-549h-91v475h-219v-475h-92v475h-71v74h71v46q0 90 48 131t151 41v-74q-60 0 -83.5 -22.5t-23.5 -75.5zM451 637q-26 0 -43.5 18t-17.5 44t18 44t43.5 18t43 -18t17.5 -44t-17.5 -44t-43.5 -18z" />
    <glyph glyph-name="uniFB02" unicode="fl" horiz-adv-x="571" 
d="M405 740h91v-740h-91v740zM186 595v-46h115v-74h-115v-475h-92v475h-71v74h71v46q0 90 48 131t151 41v-74q-60 0 -83.5 -22.5t-23.5 -75.5z" />
    <glyph glyph-name=".notdef" horiz-adv-x="751" 
d="M235 646v-591h281v591h-281zM176 0v701h399v-701h-399z" />
    <glyph glyph-name="uni0000" horiz-adv-x="0" 
 />
    <glyph glyph-name="uni000D" unicode="&#xd;" horiz-adv-x="300" 
 />
    <glyph glyph-name="space" unicode=" " horiz-adv-x="300" 
 />
    <glyph glyph-name="exclam" unicode="!" horiz-adv-x="410" 
d="M254 17q-17 -17 -41.5 -17t-41.5 17t-17 41.5t17 41.5t41.5 17t41.5 -17t17 -41.5t-17 -41.5zM173 207l-11 541h95l-10 -541h-74z" />
    <glyph glyph-name="quotedbl" unicode="&#x22;" horiz-adv-x="286" 
d="M179 597l-12 199h87l-12 -199h-63zM44 597l-12 199h87l-12 -199h-63z" />
    <glyph glyph-name="numbersign" unicode="#" horiz-adv-x="848" 
d="M790 462h-156l-39 -182h137v-78h-154l-43 -202h-88l43 202h-209l-43 -202h-88l43 202h-156v78h173l39 182h-155v78h171l43 200h88l-43 -200h209l43 200h88l-43 -200h140v-78zM507 280l39 182h-209l-39 -182h209z" />
    <glyph glyph-name="dollar" unicode="$" horiz-adv-x="652" 
d="M472.5 60q-54.5 -58 -152.5 -66v-81h-56v81q-90 7 -147 54.5t-57 124.5h97q3 -41 29.5 -69t77.5 -34v245q-103 23 -140 52q-45 36 -56 77q-8 27 -8 61q0 81 55 134t149 60v81h56v-81q84 -7 136 -52.5t61 -121.5h-100q-3 33 -28.5 60t-68.5 36v-240q125 -26 164 -68
q43 -46 43 -120.5t-54.5 -132.5zM180.5 589q-31.5 -29 -31.5 -79t29.5 -74.5t85.5 -40.5v228q-52 -5 -83.5 -34zM406.5 109.5q31.5 32.5 31.5 80t-30.5 72t-87.5 39.5v-231q55 7 86.5 39.5z" />
    <glyph glyph-name="percent" unicode="%" horiz-adv-x="684" 
d="M493 229q-69 0 -69 -91t69 -91t69 91t-69 91zM388.5 30q-40.5 40 -40.5 107.5t41 108t104 40.5t104.5 -40.5t41.5 -108t-41 -107.5t-105 -40t-104.5 40zM94 0l405 693h91l-405 -693h-91zM191 646q-69 0 -69 -91t69 -91t69 91t-69 91zM87 447.5q-41 40.5 -41 108
t40.5 107.5t104.5 40t105 -40t41 -107.5t-41 -108t-104.5 -40.5t-104.5 40.5z" />
    <glyph glyph-name="ampersand" unicode="&#x26;" horiz-adv-x="668" 
d="M365.5 33.5q-53.5 -41.5 -131.5 -41.5t-137 57.5t-59 146.5t57.5 146t140.5 57q11 0 26 -9l-40 30q-69 90 -69 157.5t48.5 115t131 47.5t131.5 -46.5t49 -110.5q0 -21 -7 -46h-92q6 18 6 48t-24.5 55t-63 25t-63 -25t-24.5 -66t46 -102l362 -472h-111l-105 140
q-18 -65 -71.5 -106.5zM242 66q50 0 86 38t36 92.5t-35.5 92.5t-86 38t-85.5 -37.5t-35 -92.5t35 -93t85 -38z" />
    <glyph glyph-name="quotesingle" unicode="'" horiz-adv-x="151" 
d="M44 597l-12 199h87l-12 -199h-63z" />
    <glyph glyph-name="parenleft" unicode="(" horiz-adv-x="561" 
d="M152 403q0 185 72 341.5t192 244.5h97v-9q-138 -108 -205.5 -259.5t-67.5 -318t67.5 -318.5t205.5 -259v-9h-97q-120 88 -192 245t-72 342z" />
    <glyph glyph-name="parenright" unicode=")" horiz-adv-x="562" 
d="M410 403q0 -185 -72 -342t-192 -245h-97v9q137 107 205 259t68 318.5t-68 318t-205 259.5v9h97q120 -88 192 -244.5t72 -341.5z" />
    <glyph glyph-name="asterisk" unicode="*" horiz-adv-x="492" 
d="M286 734l-20 -152l120 91l40 -72l-143 -54l143 -54l-40 -73l-120 91l20 -151h-82l18 151l-122 -93l-42 75l142 54l-142 54l42 73l122 -92l-18 152h82z" />
    <glyph glyph-name="plus" unicode="+" horiz-adv-x="741" 
d="M625 406v-80h-212v-215h-85v215h-212v80h212v215h85v-215h212z" />
    <glyph glyph-name="comma" unicode="," horiz-adv-x="186" 
d="M39 67h93q50 -210 -90 -210v44q25 0 36.5 12t11.5 38v23h-51v93z" />
    <glyph glyph-name="hyphen" unicode="-" horiz-adv-x="587" 
d="M94 327v78h399v-78h-399z" />
    <glyph glyph-name="period" unicode="." horiz-adv-x="226" 
d="M113 0q-24 0 -41 17t-17 41.5t17 41.5t41 17t41 -17t17 -41.5t-17 -41.5t-41 -17z" />
    <glyph glyph-name="slash" unicode="/" horiz-adv-x="539" 
d="M82 -170l273 1112h90l-273 -1112h-90z" />
    <glyph glyph-name="zero" unicode="0" horiz-adv-x="636" 
d="M213.5 712q44.5 19 111 19t117 -27.5t77.5 -79.5q49 -96 49 -258q0 -208 -74 -295q-61 -70 -177 -70q-213 0 -245 249q-6 52 -6 116.5t6.5 116t24 99.5t45 79.5t72 50.5zM403.5 627.5q-34.5 22.5 -81.5 22.5t-77.5 -16t-47.5 -41t-27 -64.5t-12.5 -76t-2.5 -86.5
t2.5 -86.5t12.5 -76t27 -64.5t47.5 -41t72.5 -16t72.5 16t48 41t26.5 65q16 64 16 145t-5.5 125t-21 87.5t-50 66z" />
    <glyph glyph-name="one" unicode="1" horiz-adv-x="321" 
d="M134 0v629h-82v81h171v-710h-89z" />
    <glyph glyph-name="two" unicode="2" horiz-adv-x="579" 
d="M56 10v65q24 21 75.5 65t76.5 66.5t66 61t62.5 64.5t44.5 60q43 64 43 126.5t-32.5 100.5t-102 38t-106.5 -42.5t-40 -112.5h-87q4 112 67.5 172.5t165 60.5t163 -57.5t61.5 -156.5q0 -119 -116 -245q-42 -45 -65 -66q-64 -62 -137 -123h340v-77h-479z" />
    <glyph glyph-name="three" unicode="3" horiz-adv-x="589" 
d="M132.5 696.5q64.5 49.5 165 49.5t159 -53t58.5 -135q0 -59 -33 -103.5t-85 -60.5v-5q61 -17 96 -66t35 -131t-60.5 -139t-167 -57t-174.5 54t-75 153h86q5 -57 47.5 -93.5t113 -36.5t108 37.5t37.5 96.5q0 79 -50 112t-153 33h-24v76h25q188 2 188 121q0 55 -35.5 87
t-99.5 32t-101 -29.5t-45 -78.5h-88q8 87 72.5 136.5z" />
    <glyph glyph-name="four" unicode="4" horiz-adv-x="634" 
d="M420 240v396l-269 -396h269zM417 0v162h-372v64l344 494h116v-480h97v-78h-97v-162h-88z" />
    <glyph glyph-name="five" unicode="5" horiz-adv-x="634" 
d="M90 731h433v-79h-349v-229q22 33 67 55t102.5 22t105 -21.5t73.5 -58.5q49 -72 49 -164q0 -113 -63 -184.5t-176.5 -71.5t-178 53t-80.5 140h87q14 -54 57.5 -85t115 -31t112 48t40.5 129t-40.5 124.5t-120.5 43.5q-54 0 -93 -28t-58 -76h-83v413z" />
    <glyph glyph-name="six" unicode="6" horiz-adv-x="644" 
d="M452.5 361.5q-39.5 44.5 -112 44.5t-122 -40.5t-49.5 -118.5t43 -124t120 -46t118.5 43.5t41.5 120t-39.5 121zM335 670q-90 0 -133 -66t-46 -224q27 49 80 76.5t118 27.5q100 0 162 -64.5t62 -174t-61 -177.5t-175 -68q-182 0 -233 154q-29 87 -29 245t62 253t193 95
q96 0 152.5 -51.5t65.5 -127.5h-82q-13 52 -45 77t-91 25z" />
    <glyph glyph-name="seven" unicode="7" horiz-adv-x="560" 
d="M40 728h482v-68l-286 -660h-100l299 651h-395v77z" />
    <glyph glyph-name="eight" unicode="8" horiz-adv-x="635" 
d="M438 312.5q-46 36.5 -120.5 36.5t-121.5 -36.5t-47 -106t45.5 -109.5t122.5 -40t122 40.5t45 109.5t-46 105.5zM426.5 641.5q-39.5 33.5 -109 33.5t-109.5 -33.5t-40 -91.5t41.5 -93.5t107.5 -35.5t107.5 35.5t41.5 93.5t-39.5 91.5zM82 556q0 85 61.5 140.5t174 55.5
t173.5 -56t61 -141q0 -58 -30 -101.5t-78 -64.5q57 -19 92 -68.5t35 -118.5q0 -101 -70 -161.5t-184 -60.5t-184 60.5t-70 161.5q0 69 35 118.5t93 68.5q-109 52 -109 167z" />
    <glyph glyph-name="nine" unicode="9" horiz-adv-x="635" 
d="M209.5 395q40.5 -44 115 -44t112.5 42t38 116t-40.5 117.5t-111.5 43.5t-112.5 -44t-41.5 -115.5t40.5 -115.5zM334 78q80 0 117 61.5t37 215.5q-26 -40 -72.5 -61t-100.5 -21q-99 0 -165.5 62.5t-66.5 171.5t63 174.5t175 65.5q131 0 188 -89.5t57 -281t-52.5 -283.5
t-184.5 -92q-101 0 -158 53t-68 133h83q23 -109 148 -109z" />
    <glyph glyph-name="colon" unicode=":" horiz-adv-x="302" 
d="M185 444q-17 -17 -41.5 -17t-41.5 17t-17 41t17 41t41.5 17t41.5 -17t17 -41t-17 -41zM185 17q-17 -17 -41.5 -17t-41.5 17t-17 41.5t17 41.5t41.5 17t41.5 -17t17 -41.5t-17 -41.5z" />
    <glyph glyph-name="semicolon" unicode=";" horiz-adv-x="276" 
d="M151 428q-24 0 -41 17t-17 41.5t17 41.5t41 17t41 -17t17 -41.5t-17 -41.5t-41 -17zM98 67h93q50 -210 -90 -210v44q25 0 36.5 12t11.5 38v23h-51v93z" />
    <glyph glyph-name="less" unicode="&#x3c;" horiz-adv-x="636" 
d="M226 366l242 -230h-115l-242 230l242 229h115z" />
    <glyph glyph-name="equal" unicode="=" horiz-adv-x="771" 
d="M126 434v80h520v-80h-520zM126 218v79h520v-79h-520z" />
    <glyph glyph-name="greater" unicode="&#x3e;" horiz-adv-x="603" 
d="M132 136l242 230l-242 229h114l242 -229l-242 -230h-114z" />
    <glyph glyph-name="question" unicode="?" horiz-adv-x="626" 
d="M214 9q-17 17 -17 41.5t17 41.5t41.5 17t41.5 -17t17 -41.5t-17 -41.5t-41.5 -17t-41.5 17zM158.5 687q60.5 55 159 55t158 -55t59.5 -157.5t-59.5 -150t-179.5 -48.5v-132h-86v197h40q101 -1 150 27.5t49 112.5q0 61 -35 95t-97 34t-97.5 -32.5t-35.5 -92.5h-85
q-1 92 59.5 147z" />
    <glyph glyph-name="at" unicode="@" horiz-adv-x="1157" 
d="M55 206q0 161 75.5 293.5t211 209t304.5 76.5q205 0 330.5 -117t125.5 -308q0 -155 -82 -262t-184 -107q-59 0 -86.5 35t-25.5 87q-76 -122 -207 -122q-105 0 -168.5 81.5t-45.5 206t107 201.5t201 77t174.5 -78.5t44.5 -193.5l-25 -161q-7 -56 39 -56q58 0 111 84.5
t53 207.5q0 159 -99 254t-275 95q-211 0 -348 -145t-137 -358q0 -180 111.5 -278.5t299.5 -103.5l-19 -76q-216 5 -351 125.5t-135 332.5zM709 420q-41 59 -111.5 59t-129.5 -59t-72 -146t28 -146.5t111.5 -59.5t129.5 59.5t72 146.5t-28 146z" />
    <glyph glyph-name="A" unicode="A" horiz-adv-x="691" 
d="M553 0l-54 152h-308l-54 -152h-93l252 693h100l251 -693h-94zM217 224h256l-128 358z" />
    <glyph glyph-name="B" unicode="B" horiz-adv-x="612" 
d="M75 693h248q106 0 164 -51.5t58 -132.5q0 -116 -133 -153q67 -11 108 -60t41 -113q0 -79 -61.5 -131t-164.5 -52h-260v693zM166 620v-228h153q63 0 98.5 30.5t35.5 83t-35.5 83.5t-98.5 31h-153zM166 72h164q66 0 103.5 33t37.5 90.5t-40.5 90.5t-107.5 33h-157v-247z
" />
    <glyph glyph-name="C" unicode="C" horiz-adv-x="777" 
d="M141 94q-102 100 -102 253.5t102 253t251 99.5q108 0 192.5 -51t124.5 -147h-110q-62 117 -207 117q-113 0 -186.5 -74.5t-73.5 -197.5t73.5 -198t186.5 -75q69 0 123 30.5t84 87.5h110q-40 -96 -124.5 -147t-192.5 -51q-149 0 -251 100z" />
    <glyph glyph-name="D" unicode="D" horiz-adv-x="696" 
d="M166 70h128q131 0 200 72t69 201t-69 201t-200 72h-128v-546zM294 693q168 0 265 -94t97 -256t-97 -252.5t-265 -90.5h-219v693h219z" />
    <glyph glyph-name="E" unicode="E" horiz-adv-x="505" 
d="M442 693v-72h-276v-236h246v-71h-246v-242h276v-72h-367v693h367z" />
    <glyph glyph-name="F" unicode="F" horiz-adv-x="490" 
d="M75 0v693h390v-73h-299v-235h236v-72h-236v-313h-91z" />
    <glyph glyph-name="G" unicode="G" horiz-adv-x="777" 
d="M141 94q-102 100 -102 253.5t102 253t251 99.5q108 0 192.5 -51t124.5 -147h-110q-62 117 -207 117q-113 0 -186.5 -74.5t-73.5 -197.5t73.5 -198t183 -75t176 62t77.5 168h-286v72h382v-72q-14 -134 -111 -222t-240.5 -88t-245.5 100z" />
    <glyph glyph-name="H" unicode="H" horiz-adv-x="682" 
d="M515 693h92v-693h-92v313h-349v-313h-91v693h91v-308h349v308z" />
    <glyph glyph-name="I" unicode="I" horiz-adv-x="241" 
d="M75 0v693h91v-693h-91z" />
    <glyph glyph-name="J" unicode="J" horiz-adv-x="552" 
d="M346 181v512h91v-512q0 -86 -53 -137t-140 -51t-140.5 51t-53.5 137h93q1 -48 25.5 -78t76 -30t76.5 30.5t25 77.5z" />
    <glyph glyph-name="K" unicode="K" horiz-adv-x="598" 
d="M166 0h-91v693h91v-321l285 321h119l-324 -351l324 -342h-121l-283 310v-310z" />
    <glyph glyph-name="L" unicode="L" horiz-adv-x="429" 
d="M75 693h91v-623h243v-70h-334v693z" />
    <glyph glyph-name="M" unicode="M" horiz-adv-x="857" 
d="M782 693v-693h-92v505l-232 -505h-59l-233 505v-505h-91v693h93l261 -568l260 568h93z" />
    <glyph glyph-name="N" unicode="N" horiz-adv-x="698" 
d="M532 693h91v-693h-91l-366 550v-550h-91v693h91l366 -550v550z" />
    <glyph glyph-name="O" unicode="O" horiz-adv-x="782" 
d="M651 347q0 123 -73 197.5t-186.5 74.5t-187 -74.5t-73.5 -197.5t74 -198t187 -75t186 75t73 198zM141 93.5q-102 100.5 -102 254t102 253t251 99.5t250.5 -99.5t101.5 -253.5t-101.5 -254t-250.5 -100t-251 100.5z" />
    <glyph glyph-name="P" unicode="P" horiz-adv-x="578" 
d="M478.5 636q61.5 -57 61.5 -146t-59.5 -146.5t-180.5 -57.5h-134v-286h-91v693h225q117 0 178.5 -57zM166 358h134q75 0 111.5 34.5t36.5 96.5q0 131 -148 131h-134v-262z" />
    <glyph glyph-name="Q" unicode="Q" horiz-adv-x="785" 
d="M392 -7q-149 0 -251 100.5t-102 254t102 253t251 99.5t250.5 -99.5t101.5 -253.5q0 -99 -44 -178t-121 -125l177 -175h-120l-140 139q-48 -15 -104 -15zM131 347q0 -123 74 -198t187 -75t186 75t73 198t-73 197.5t-186.5 74.5t-187 -74.5t-73.5 -197.5z" />
    <glyph glyph-name="R" unicode="R" horiz-adv-x="617" 
d="M166 286v-286h-91v693h225q117 0 178.5 -57t61.5 -139.5t-45 -137.5t-135 -69l191 -290h-114l-182 286h-89zM166 620v-262h134q75 0 111.5 34.5t36.5 96.5q0 131 -148 131h-134z" />
    <glyph glyph-name="S" unicode="S" horiz-adv-x="587" 
d="M149 508q0 -38 21 -63t54 -37t73.5 -21t81 -20.5t73.5 -29.5t54 -54t21 -89q0 -81 -62 -141t-167.5 -60t-171.5 48.5t-66 131.5h97q4 -47 37.5 -76t99.5 -29t105 34t39 79.5t-21 70t-54 36.5t-73.5 20.5t-81 20.5t-73.5 30.5t-54 55t-21 90.5q0 88 62.5 141.5t163 53.5
t160 -46.5t68.5 -128.5h-101q-4 41 -38.5 70t-93 29t-95.5 -29.5t-37 -86.5z" />
    <glyph glyph-name="T" unicode="T" horiz-adv-x="546" 
d="M44 620v73h457v-73h-183v-620h-91v620h-183z" />
    <glyph glyph-name="U" unicode="U" horiz-adv-x="673" 
d="M74 243v450h92v-450q0 -86 45.5 -128.5t125.5 -42.5t126 42.5t46 128.5v450h91v-450q0 -122 -74.5 -186t-189 -64t-188.5 64t-74 186z" />
    <glyph glyph-name="V" unicode="V" horiz-adv-x="680" 
d="M291 0l-267 693h97l218 -596l220 596h97l-267 -693h-98z" />
    <glyph glyph-name="W" unicode="W" horiz-adv-x="980" 
d="M860 693h96l-210 -693h-102l-156 560l-167 -560l-101 -1l-196 694h96l154 -589l168 589h100l155 -587z" />
    <glyph glyph-name="X" unicode="X" horiz-adv-x="629" 
d="M580 693l-214 -347l213 -346h-100l-169 273l-159 -273h-101l214 347l-214 346h101l169 -274l159 274h101z" />
    <glyph glyph-name="Y" unicode="Y" horiz-adv-x="572" 
d="M332 0h-91v262l-226 431h100l171 -347l170 347h101l-225 -431v-262z" />
    <glyph glyph-name="Z" unicode="Z" horiz-adv-x="542" 
d="M492 693v-73l-337 -548h337v-72h-442v72l338 548h-338v73h442z" />
    <glyph glyph-name="bracketleft" unicode="[" horiz-adv-x="474" 
d="M160 -171v1113h170v-76h-86v-960h86v-77h-170z" />
    <glyph glyph-name="backslash" unicode="\" horiz-adv-x="683" 
d="M247 942l312 -1112h-90l-313 1112h91z" />
    <glyph glyph-name="bracketright" unicode="]" horiz-adv-x="474" 
d="M315 942v-1113h-171v77h86v960h-86v76h171z" />
    <glyph glyph-name="asciicircum" unicode="^" horiz-adv-x="632" 
d="M498 170l-182 409l-182 -409h-96l236 523h84l236 -523h-96z" />
    <glyph glyph-name="underscore" unicode="_" horiz-adv-x="806" 
d="M143 -122v82h532v-82h-532z" />
    <glyph glyph-name="grave" unicode="`" horiz-adv-x="239" 
d="M10 699v84l213 -126v-70z" />
    <glyph glyph-name="a" unicode="a" horiz-adv-x="670" 
d="M503 274q0 93 -54.5 149t-131 56t-131 -54t-54.5 -147t55 -151t131 -58t130.5 56t54.5 149zM114 71.5q-75 80.5 -75 206t74.5 203t187.5 77.5q70 0 122.5 -33t79.5 -86v110h92v-549h-92v112q-27 -54 -79.5 -87.5t-122.5 -33.5q-112 0 -187 80.5z" />
    <glyph glyph-name="b" unicode="b" horiz-adv-x="670" 
d="M482.5 126.5q54.5 57.5 54.5 151t-54.5 147.5t-131 54t-131 -56t-54.5 -148.5t54.5 -149t131 -56.5t131 57.5zM369 558q113 0 187.5 -77.5t74.5 -203t-75 -206t-187 -80.5q-70 0 -122.5 33.5t-80.5 87.5v-112h-91v740h91v-301q28 53 80.5 86t122.5 33z" />
    <glyph glyph-name="c" unicode="c" horiz-adv-x="600" 
d="M113 69q-74 78 -74 205.5t74 205.5t192 78q99 0 161.5 -46t87.5 -131h-98q-16 48 -55 75t-96 27q-78 0 -125.5 -54.5t-47.5 -154t47.5 -154t125.5 -54.5q117 0 151 102h98q-25 -81 -88.5 -129t-160.5 -48q-118 0 -192 78z" />
    <glyph glyph-name="d" unicode="d" horiz-adv-x="670" 
d="M503 274q0 93 -54.5 149t-131 56t-131 -54t-54.5 -147t55 -151t131 -58t130.5 56t54.5 149zM114 71.5q-75 80.5 -75 206t74.5 203t187.5 77.5q70 0 122.5 -33t79.5 -86v301h92v-740h-92v112q-27 -54 -79.5 -87.5t-122.5 -33.5q-112 0 -187 80.5z" />
    <glyph glyph-name="e" unicode="e" horiz-adv-x="611" 
d="M305 -9q-118 0 -192 78t-74 206t75 205.5t194.5 77.5t192 -73.5t72.5 -187.5q0 -29 -4 -54h-437q4 -82 51.5 -129.5t121.5 -47.5q56 0 94.5 25t56.5 66h98q-26 -72 -89.5 -119t-159.5 -47zM428 435.5q-49 47.5 -121.5 47.5t-120.5 -46.5t-53 -127.5h345q-1 79 -50 126.5z
" />
    <glyph glyph-name="f" unicode="f" horiz-adv-x="330" 
d="M301 549v-74h-115v-475h-92v475h-71v74h71v46q0 90 48 131t151 41v-74q-60 0 -83.5 -22.5t-23.5 -75.5v-46h115z" />
    <glyph glyph-name="g" unicode="g" horiz-adv-x="670" 
d="M114 71.5q-75 80.5 -75 206t74.5 203t187.5 77.5q70 0 122.5 -33t79.5 -86v110h92v-563q0 -113 -73 -184.5t-185 -71.5t-185.5 52t-83.5 136h89q13 -47 61 -78t119 -31t118.5 46.5t47.5 130.5v126q-27 -54 -79.5 -87.5t-122.5 -33.5q-112 0 -187 80.5zM503 274
q0 93 -54.5 149t-131 56t-131 -54t-54.5 -147t55 -151t131 -58t130.5 56t54.5 149z" />
    <glyph glyph-name="h" unicode="h" horiz-adv-x="628" 
d="M166 740v-280q56 98 179 98q91 0 152 -60.5t61 -172.5v-325h-90v310q0 83 -40 126t-110.5 43t-111 -43t-40.5 -126v-310h-91v740h91z" />
    <glyph glyph-name="i" unicode="i" horiz-adv-x="241" 
d="M121 637q-26 0 -43.5 18t-17.5 44t18 44t43.5 18t43.5 -18t18 -44t-18 -44t-44 -18zM75 0v549h91v-549h-91z" />
    <glyph glyph-name="j" unicode="j" horiz-adv-x="241" 
d="M75 549h91v-667q0 -142 -142 -142h-56v75h38q38 0 53.5 15.5t15.5 51.5v667zM121 637q-26 0 -43.5 18t-17.5 44t18 44t43.5 18t43.5 -18t18 -44t-18 -44t-44 -18z" />
    <glyph glyph-name="k" unicode="k" horiz-adv-x="513" 
d="M166 0h-91v740h91v-434l210 243h128l-259 -273l259 -276h-123l-215 241v-241z" />
    <glyph glyph-name="l" unicode="l" horiz-adv-x="241" 
d="M75 0v740h91v-740h-91z" />
    <glyph glyph-name="m" unicode="m" horiz-adv-x="1020" 
d="M166 549v-89q56 98 179 98q63 0 114 -30.5t77 -88.5q30 56 81.5 87.5t117.5 31.5q93 0 154 -60.5t61 -172.5v-325h-90v310q0 83 -40.5 126t-110.5 43t-110.5 -43t-40.5 -126v-310h-90v310q0 83 -40 126t-110.5 43t-111 -43t-40.5 -126v-310h-91v549h91z" />
    <glyph glyph-name="n" unicode="n" horiz-adv-x="628" 
d="M166 549v-89q56 98 179 98q91 0 152 -60.5t61 -172.5v-325h-90v310q0 83 -40 126t-110.5 43t-111 -43t-40.5 -126v-310h-91v549h91z" />
    <glyph glyph-name="o" unicode="o" horiz-adv-x="632" 
d="M442.5 121.5q56.5 55.5 56.5 153.5t-54 153t-131.5 55t-129.5 -55t-52 -153.5t50 -153.5t127 -55t133.5 55.5zM39 274q0 127 79 205.5t198 78.5t198 -78.5t79 -205t-82.5 -205t-201.5 -78.5t-194.5 78t-75.5 205z" />
    <glyph glyph-name="p" unicode="p" horiz-adv-x="670" 
d="M482.5 126.5q54.5 57.5 54.5 151t-54.5 147.5t-131 54t-131 -56t-54.5 -148.5t54.5 -149t131 -56.5t131 57.5zM369 558q113 0 187.5 -77.5t74.5 -203t-75 -206t-187 -80.5q-70 0 -122.5 33.5t-80.5 87.5v-372h-91v809h91v-110q28 53 80.5 86t122.5 33z" />
    <glyph glyph-name="q" unicode="q" horiz-adv-x="670" 
d="M503 274q0 93 -54.5 149t-131 56t-131 -54t-54.5 -147t55 -151t131 -58t130.5 56t54.5 149zM114 71.5q-75 80.5 -75 206t74.5 203t187.5 77.5q70 0 122.5 -33t79.5 -86v110h92v-809h-92v372q-27 -54 -79.5 -87.5t-122.5 -33.5q-112 0 -187 80.5z" />
    <glyph glyph-name="r" unicode="r" horiz-adv-x="368" 
d="M166 549v-93q49 102 167 102v-95h-24q-70 0 -106.5 -36.5t-36.5 -126.5v-300h-91v549h91z" />
    <glyph glyph-name="s" unicode="s" horiz-adv-x="526" 
d="M55 394q0 69 57.5 116.5t149 47.5t143.5 -46.5t57 -127.5h-94q-2 46 -31 74t-80.5 28t-81 -24.5t-29.5 -63t33.5 -59.5t81 -30.5t95 -22t81 -47t33.5 -98t-57.5 -107t-149.5 -43.5t-147.5 46t-60.5 127h94q2 -46 32.5 -73.5t84 -27.5t84 23t30.5 58.5t-24 56.5t-60 29
t-78.5 19t-78.5 23.5t-60 43.5t-24 78z" />
    <glyph glyph-name="t" unicode="t" horiz-adv-x="355" 
d="M255 74h75v-74h-92q-143 0 -143 141v334h-71v74h71v136h92v-136h142v-74h-142v-334q0 -37 15 -52t53 -15z" />
    <glyph glyph-name="u" unicode="u" horiz-adv-x="628" 
d="M462 549h91v-549h-91v88q-55 -97 -179 -97q-91 0 -152 60.5t-61 171.5v326h90v-311q0 -82 40.5 -125.5t110.5 -43.5t110.5 43.5t40.5 125.5v311z" />
    <glyph glyph-name="v" unicode="v" horiz-adv-x="556" 
d="M12 549h97l168 -464l169 464h98l-215 -549h-103z" />
    <glyph glyph-name="w" unicode="w" horiz-adv-x="808" 
d="M704 549h92l-173 -549h-94l-124 436l-124 -436h-95l-174 549h94l127 -458l129 458h94l122 -459z" />
    <glyph glyph-name="x" unicode="x" horiz-adv-x="478" 
d="M466 549l-177 -274l176 -275h-103l-130 204l-121 -204h-99l177 272l-177 277h103l131 -205l122 205h98z" />
    <glyph glyph-name="y" unicode="y" horiz-adv-x="557" 
d="M229 9l-217 540h100l168 -444l171 444h94l-331 -806h-94z" />
    <glyph glyph-name="z" unicode="z" horiz-adv-x="453" 
d="M410 549v-74l-265 -401h265v-74h-368v74l265 401h-265v74h368z" />
    <glyph glyph-name="braceleft" unicode="{" horiz-adv-x="550" 
d="M332 236q0 -30 -8 -89t-8 -103q0 -197 128 -245v-16h-91q-16 7 -28 14t-31.5 26t-31.5 43q-33 62 -33 161q0 36 8.5 98.5t8.5 96.5q0 108 -101 129v42q101 20 101 129q0 34 -8.5 96.5t-8.5 107t10 86.5t22.5 66t32 43t31.5 26t28 14h91v-16q-128 -48 -128 -245
q0 -44 8 -103t8 -100t-26 -77t-79 -47v-2q105 -21 105 -135z" />
    <glyph glyph-name="bar" unicode="|" horiz-adv-x="301" 
d="M105 795h91v-901h-91v901z" />
    <glyph glyph-name="braceright" unicode="}" horiz-adv-x="547" 
d="M244.5 420q-25.5 36 -25.5 77t8 100t8 103q0 99 -34 160.5t-95 84.5v16h92q16 -7 28 -14t31.5 -26t32.5 -43q32 -62 32 -161q0 -36 -8.5 -98.5t-8.5 -96.5q0 -110 100 -129v-42q-100 -20 -100 -129q0 -34 8.5 -96.5t8.5 -107t-10 -86.5t-22.5 -66t-32 -43t-31.5 -26
t-28 -14h-92v16q61 23 95 84.5t34 160.5q0 44 -8 103t-8 89q0 114 104 135v2q-53 11 -78.5 47z" />
    <glyph glyph-name="asciitilde" unicode="~" horiz-adv-x="520" 
d="M89 358.5q38 35.5 86 35.5t95.5 -32t74 -32t46.5 16t24 45h68q-26 -143 -146 -143q-40 0 -87.5 32t-73.5 32t-46.5 -16.5t-24.5 -44.5h-67q13 72 51 107.5z" />
    <glyph glyph-name="uni00A0" unicode="&#xa0;" horiz-adv-x="300" 
 />
    <glyph glyph-name="exclamdown" unicode="&#xa1;" horiz-adv-x="424" 
d="M162 -190l11 541h74l10 -541h-95zM171 541q17 17 41.5 17t41.5 -17t17 -41.5t-17 -41.5t-41.5 -17t-41.5 17t-17 41.5t17 41.5z" />
    <glyph glyph-name="cent" unicode="&#xa2;" horiz-adv-x="715" 
d="M330 446q-79 0 -126.5 -49.5t-47.5 -136t47.5 -136t126.5 -49.5q116 0 146 92h85q-10 -66 -63.5 -113t-138.5 -54v-89h-60v89q-110 10 -169 83.5t-59 177t59 177.5t169 84v88h60v-88q85 -8 138.5 -55t63.5 -113h-85q-30 92 -146 92z" />
    <glyph glyph-name="sterling" unicode="&#xa3;" horiz-adv-x="639" 
d="M545 75v-76h-443l-19 53q40 47 59.5 90t19.5 90t-8 76h-109v64h87q-23 63 -23 125q0 95 61 154t161 59t153 -58.5t54 -148.5h-82q0 59 -31 94.5t-93.5 35.5t-100 -34t-37.5 -107q0 -47 25 -120h198v-64h-178q9 -36 9 -60q0 -97 -68 -173h365z" />
    <glyph glyph-name="currency" unicode="&#xa4;" horiz-adv-x="537" 
d="M445 377q0 -58 -30 -102l62 -60l-45 -45l-62 62q-45 -31 -104.5 -31t-101.5 28l-59 -59l-45 45l59 59q-28 44 -28 103.5t30 103.5l-61 60l45 45l61 -61q45 28 103 28t101 -29l62 62l45 -45l-61 -61q29 -45 29 -103zM265 257q44 0 75.5 31.5t31.5 88.5t-30.5 89t-74.5 32
t-73.5 -32t-29.5 -89t28.5 -88.5t72.5 -31.5z" />
    <glyph glyph-name="yen" unicode="&#xa5;" horiz-adv-x="572" 
d="M532 383v-69l-174 -2l-26 -50v-53h200v-69h-200v-140h-91v140h-200v69h200v53l-26 50l-174 2v69h137l-163 310h100l171 -347l170 347h101l-162 -310h137z" />
    <glyph glyph-name="brokenbar" unicode="&#xa6;" horiz-adv-x="301" 
d="M196 417h-91v378h91v-378zM105 272h91v-378h-91v378z" />
    <glyph glyph-name="section" unicode="&#xa7;" horiz-adv-x="574" 
d="M489 540h-88q-3 41 -31 66t-82 25q-121 0 -121 -87q0 -35 32 -57t132 -55t149 -75.5t49 -105.5t-35.5 -106t-101.5 -64q51 -24 78 -53.5t27 -77.5q0 -67 -56.5 -112t-149 -45t-149 41.5t-56.5 113.5h87q3 -41 31 -66t83 -25q121 0 121 87q0 35 -32 57t-132.5 55
t-149.5 75.5t-49 106.5t36.5 107t101.5 62q-51 24 -78 53.5t-27 77.5q0 67 56.5 112t148.5 45t149 -41.5t57 -113.5zM177 325q-40 -33 -40 -80.5t42 -81t110 -33.5t108.5 33t40.5 81.5t-42.5 81t-110.5 32.5t-108 -33z" />
    <glyph glyph-name="dieresis" unicode="&#xa8;" horiz-adv-x="289" 
d="M225 620q-23 0 -38.5 16t-15.5 38t15.5 38t38.5 16t38.5 -16t15.5 -38t-15.5 -38t-38.5 -16zM64 620q-22 0 -38 16t-16 38t16 38t38 16t38 -16t16 -38t-16 -38t-38 -16z" />
    <glyph glyph-name="copyright" unicode="&#xa9;" horiz-adv-x="790" 
d="M645 601q96 -99 96 -255.5t-96 -255.5t-250 -99t-250.5 99.5t-96.5 255.5t96.5 255t250.5 99t250 -99zM93 346q0 -143 81.5 -229t220 -86t220 86t81.5 229t-81.5 228.5t-220 85.5t-220 -85.5t-81.5 -228.5zM394 115q-93 0 -155 64.5t-62 167.5t62 167t155 64
q76 0 129.5 -38.5t73.5 -106.5h-87q-23 77 -116 77q-59 0 -95.5 -41t-36.5 -122t36.5 -122.5t95.5 -41.5q88 0 116 77h87q-21 -64 -75 -104.5t-128 -40.5z" />
    <glyph glyph-name="ordfeminine" unicode="&#xaa;" horiz-adv-x="450" 
d="M331 528q0 56 -32.5 89t-78 33t-78 -32.5t-32.5 -88t32.5 -90t78 -34.5t78 33.5t32.5 89.5zM33 530q0 78 48 128.5t118 50.5q47 0 81 -20t51 -52v66h73v-350h-73v66q-17 -32 -51 -52t-81 -20q-70 0 -118 52.5t-48 130.5z" />
    <glyph glyph-name="guillemotleft" unicode="&#xab;" horiz-adv-x="461" 
d="M312 295l99 -175h-90l-95 175l95 175h90zM131 295l99 -175h-89l-96 175l96 175h89z" />
    <glyph glyph-name="logicalnot" unicode="&#xac;" horiz-adv-x="738" 
d="M45 360v73h641v-213h-90v140h-551z" />
    <glyph glyph-name="uni00AD" unicode="&#xad;" horiz-adv-x="587" 
d="M94 327v78h399v-78h-399z" />
    <glyph glyph-name="registered" unicode="&#xae;" horiz-adv-x="790" 
d="M398 700q156 0 253 -99t97 -255.5t-97.5 -255.5t-252.5 -99t-252.5 99t-97.5 255.5t97 255.5t253 99zM398 31q140 0 222.5 86t82.5 229t-82.5 228.5t-222.5 85.5t-222.5 -85.5t-82.5 -228t82.5 -229t222.5 -86.5zM256 586h150q79 0 120.5 -38t41.5 -93t-30 -91.5
t-91 -46.5l127 -194h-75l-121 191h-62v-191h-60v463zM316 539v-177h90q100 0 100 88.5t-100 88.5h-90z" />
    <glyph glyph-name="macron" unicode="&#xaf;" horiz-adv-x="372" 
d="M10 637v73h352v-73h-352z" />
    <glyph glyph-name="degree" unicode="&#xb0;" horiz-adv-x="412" 
d="M309 523q0 57 -30.5 89.5t-74 32.5t-73 -32t-29.5 -90t28.5 -89t72 -31t75 31.5t31.5 88.5zM29 523q0 80 50 128.5t127 48.5t127 -48.5t50 -128t-52 -128t-129 -48.5t-125 48t-48 128z" />
    <glyph glyph-name="plusminus" unicode="&#xb1;" horiz-adv-x="744" 
d="M627 375h-212v-165h212v-80h-510v80h212v165h-212v80h212v168h86v-168h212v-80z" />
    <glyph glyph-name="uni00B2" unicode="&#xb2;" horiz-adv-x="322" 
d="M277 413v-61h-252v52l102 81q70 57 70 109q0 26 -15 42t-37 16q-41 0 -48 -41h-73q2 44 34 71.5t89 27.5t92 -34t35 -75.5t-21 -71.5t-70 -66l-71 -50h165z" />
    <glyph glyph-name="uni00B3" unicode="&#xb3;" horiz-adv-x="329" 
d="M157 710q54 0 94 -30t40 -73q0 -60 -63 -80v-2q28 -9 46 -29.5t18 -56t-38.5 -64t-99.5 -28.5t-96 27.5t-39 76.5h71q9 -48 63 -48q28 0 45 13.5t17 37t-17.5 36.5t-45.5 13h-42v50h41q28 0 45 12.5t17 35.5t-16 37t-44 14q-46 0 -59 -36h-71q4 42 42 68t92 26z" />
    <glyph glyph-name="acute" unicode="&#xb4;" horiz-adv-x="233" 
d="M10 657l213 126v-84l-213 -112v70z" />
    <glyph glyph-name="mu" unicode="&#xb5;" horiz-adv-x="633" 
d="M467 549h91v-549h-91v88q-55 -97 -179 -97q-74 0 -123 42v-293h-90v809h90v-311q0 -82 40.5 -125.5t110.5 -43.5t110.5 43.5t40.5 125.5v311z" />
    <glyph glyph-name="paragraph" unicode="&#xb6;" horiz-adv-x="598" 
d="M274 693h249v-693h-85v620h-68v-620h-85v286h-11q-118 0 -177.5 56t-59.5 146.5t60.5 147.5t176.5 57z" />
    <glyph glyph-name="periodcentered" unicode="&#xb7;" horiz-adv-x="230" 
d="M115 285q-24 0 -41 17t-17 41.5t17 41.5t41 17t41 -17t17 -41.5t-17 -41.5t-41 -17z" />
    <glyph glyph-name="cedilla" unicode="&#xb8;" horiz-adv-x="266" 
d="M126 7v-60q58 0 94 -27.5t36 -74.5t-35.5 -76t-91.5 -29h-119v63h107q56 0 56 41.5t-56 41.5h-55v121h64z" />
    <glyph glyph-name="uni00B9" unicode="&#xb9;" horiz-adv-x="192" 
d="M71 352v297h-51v55h124v-352h-73z" />
    <glyph glyph-name="ordmasculine" unicode="&#xba;" horiz-adv-x="436" 
d="M293.5 436.5q33.5 32.5 33.5 91.5t-32 92t-78 33t-76.5 -33t-30.5 -92t29.5 -91.5t75 -32.5t79 32.5zM84.5 397q-51.5 50 -51.5 130.5t53.5 131t132.5 50.5t131.5 -50t52.5 -130.5t-55 -131t-133.5 -50.5t-130 50z" />
    <glyph glyph-name="guillemotright" unicode="&#xbb;" horiz-adv-x="461" 
d="M139 120h-89l99 175l-99 175h89l96 -175zM320 120h-89l98 175l-98 175h89l96 -175z" />
    <glyph glyph-name="onequarter" unicode="&#xbc;" horiz-adv-x="639" 
d="M83 352v297h-51v55h124v-352h-73zM478 118v171l-108 -171h108zM549 118h48v-49h-48v-69h-73v69h-181v42l157 243h97v-236zM53 0l381 693h84l-381 -693h-84z" />
    <glyph glyph-name="onehalf" unicode="&#xbd;" horiz-adv-x="652" 
d="M615 60v-61h-252v52l102 81q70 57 70 109q0 26 -15 42t-37 16q-41 0 -48 -41h-73q2 44 34 71.5t89 27.5t92 -34t35 -75.5t-21 -71.5t-70 -66l-71 -50h165zM418 693h84l-365 -693h-84zM83 352v297h-51v55h124v-352h-73z" />
    <glyph glyph-name="threequarters" unicode="&#xbe;" horiz-adv-x="681" 
d="M164 710q54 0 94 -30t40 -73q0 -60 -63 -80v-2q28 -9 46 -29.5t18 -56t-38.5 -64t-99.5 -28.5t-96 27.5t-39 76.5h71q9 -48 63 -48q28 0 45 13.5t17 37t-17.5 36.5t-45.5 13h-42v50h41q28 0 45 12.5t17 35.5t-16 37t-44 14q-46 0 -59 -36h-71q4 42 42 68t92 26zM533 118
v171l-108 -171h108zM605 118h48v-49h-48v-69h-73v69h-181v42l157 243h97v-236zM112 0l410 693h83l-409 -693h-84z" />
    <glyph glyph-name="questiondown" unicode="&#xbf;" horiz-adv-x="626" 
d="M412 541q17 -17 17 -41.5t-17 -41.5t-41.5 -17t-41.5 17t-17 41.5t17 41.5t41.5 17t41.5 -17zM467.5 -137q-60.5 -55 -159 -55t-158 55t-59.5 157.5t59.5 150t179.5 48.5v132h86v-197h-40q-101 1 -150 -27.5t-49 -112.5q0 -61 35 -95t97 -34t97.5 32.5t35.5 92.5h85
q1 -92 -59.5 -147z" />
    <glyph glyph-name="Agrave" unicode="&#xc0;" horiz-adv-x="691" 
d="M553 0l-54 152h-308l-54 -152h-93l252 693h100l251 -693h-94zM217 224h256l-128 358zM443 801v-70l-213 112v84z" />
    <glyph glyph-name="Aacute" unicode="&#xc1;" horiz-adv-x="691" 
d="M553 0l-54 152h-308l-54 -152h-93l252 693h100l251 -693h-94zM217 224h256l-128 358zM443 927v-84l-213 -112v70z" />
    <glyph glyph-name="Acircumflex" unicode="&#xc2;" horiz-adv-x="691" 
d="M553 0l-54 152h-308l-54 -152h-93l252 693h100l251 -693h-94zM217 224h256l-128 358zM485 741l-139 86l-138 -86v77l138 83l139 -83v-77z" />
    <glyph glyph-name="Atilde" unicode="&#xc3;" horiz-adv-x="691" 
d="M553 0l-54 152h-308l-54 -152h-93l252 693h100l251 -693h-94zM217 224h256l-128 358zM475 775.5q-28 -27.5 -62.5 -27.5t-66.5 22.5t-50 22.5t-29.5 -11t-13.5 -31h-57q7 50 35 77t62.5 27t66.5 -22t50 -22q39 0 43 42h57q-7 -50 -35 -77.5z" />
    <glyph glyph-name="Adieresis" unicode="&#xc4;" horiz-adv-x="691" 
d="M553 0l-54 152h-308l-54 -152h-93l252 693h100l251 -693h-94zM217 224h256l-128 358zM265 764q-23 0 -38.5 16t-15.5 38t15.5 38t38.5 16t38.5 -16t15.5 -38t-15.5 -38t-38.5 -16zM426 764q-22 0 -38 16t-16 38t16 38t38 16t38 -16t16 -38t-16 -38t-38 -16z" />
    <glyph glyph-name="Aring" unicode="&#xc5;" horiz-adv-x="691" 
d="M553 0l-54 152h-308l-54 -152h-93l252 693h100l251 -693h-94zM217 224h256l-128 358zM421 780.5q-30 -28.5 -74.5 -28.5t-74.5 28.5t-30 75.5t30 76t74.5 29t74.5 -28.5t30 -76t-30 -76zM384 894.5q-15 14.5 -37.5 14.5t-37.5 -14.5t-15 -37.5t15 -38t37.5 -15t37.5 15
t15 38t-15 37.5z" />
    <glyph glyph-name="AE" unicode="&#xc6;" horiz-adv-x="896" 
d="M833 621h-276v-236h246v-71h-246v-242h276v-72h-367v152h-268l-86 -152h-99l395 693h425v-72zM466 224v403l-228 -403h228z" />
    <glyph glyph-name="Ccedilla" unicode="&#xc7;" horiz-adv-x="777" 
d="M392 619q-113 0 -186.5 -74.5t-73.5 -197.5t73.5 -198t186.5 -75q69 0 123 30.5t84 87.5h110q-38 -89 -113 -139.5t-173 -57.5v-48q58 0 94 -27.5t36 -74.5t-35.5 -76t-91.5 -29h-119v63h107q56 0 56 41.5t-56 41.5h-55v109q-137 12 -228.5 110t-91.5 247t102 248.5
t251 99.5q108 0 192.5 -51t124.5 -147h-110q-62 117 -207 117z" />
    <glyph glyph-name="Egrave" unicode="&#xc8;" horiz-adv-x="505" 
d="M137 843v84l213 -126v-70zM442 693v-72h-276v-236h246v-71h-246v-242h276v-72h-367v693h367z" />
    <glyph glyph-name="Eacute" unicode="&#xc9;" horiz-adv-x="505" 
d="M442 693v-72h-276v-236h246v-71h-246v-242h276v-72h-367v693h367zM137 801l213 126v-84l-213 -112v70z" />
    <glyph glyph-name="Ecircumflex" unicode="&#xca;" horiz-adv-x="505" 
d="M442 693v-72h-276v-236h246v-71h-246v-242h276v-72h-367v693h367zM391 818v-77l-139 86l-138 -86v77l138 83z" />
    <glyph glyph-name="Edieresis" unicode="&#xcb;" horiz-adv-x="505" 
d="M442 693v-72h-276v-236h246v-71h-246v-242h276v-72h-367v693h367zM333 764q-23 0 -38.5 16t-15.5 38t15.5 38t38.5 16t38.5 -16t15.5 -38t-15.5 -38t-38.5 -16zM172 764q-22 0 -38 16t-16 38t16 38t38 16t38 -16t16 -38t-16 -38t-38 -16z" />
    <glyph glyph-name="Igrave" unicode="&#xcc;" horiz-adv-x="241" 
d="M5 843v84l213 -126v-70zM75 0v693h91v-693h-91z" />
    <glyph glyph-name="Iacute" unicode="&#xcd;" horiz-adv-x="241" 
d="M5 801l213 126v-84l-213 -112v70zM75 0v693h91v-693h-91z" />
    <glyph glyph-name="Icircumflex" unicode="&#xce;" horiz-adv-x="241" 
d="M259 818v-77l-139 86l-138 -86v77l138 83zM75 0v693h91v-693h-91z" />
    <glyph glyph-name="Idieresis" unicode="&#xcf;" horiz-adv-x="241" 
d="M201 764q-23 0 -38.5 16t-15.5 38t15.5 38t38.5 16t38.5 -16t15.5 -38t-15.5 -38t-38.5 -16zM40 764q-22 0 -38 16t-16 38t16 38t38 16t38 -16t16 -38t-16 -38t-38 -16zM75 0v693h91v-693h-91z" />
    <glyph glyph-name="Eth" unicode="&#xd0;" horiz-adv-x="712" 
d="M91 693h219q168 0 265 -94t97 -256t-97 -252.5t-265 -90.5h-219v302h-87v82h87v309zM182 70h128q130 0 199.5 72t69.5 201t-69.5 201t-199.5 72h-128v-232h192v-82h-192v-232z" />
    <glyph glyph-name="Ntilde" unicode="&#xd1;" horiz-adv-x="698" 
d="M235 828q28 27 62.5 27t66.5 -22t50 -22q39 0 43 42h57q-7 -50 -35 -77.5t-62.5 -27.5t-66.5 22.5t-50 22.5t-29.5 -11t-13.5 -31h-57q7 50 35 77zM532 693h91v-693h-91l-366 550v-550h-91v693h91l366 -550v550z" />
    <glyph glyph-name="Ograve" unicode="&#xd2;" horiz-adv-x="782" 
d="M276 843v84l213 -126v-70zM651 347q0 123 -73 197.5t-186.5 74.5t-187 -74.5t-73.5 -197.5t74 -198t187 -75t186 75t73 198zM141 93.5q-102 100.5 -102 254t102 253t251 99.5t250.5 -99.5t101.5 -253.5t-101.5 -254t-250.5 -100t-251 100.5z" />
    <glyph glyph-name="Oacute" unicode="&#xd3;" horiz-adv-x="782" 
d="M651 347q0 123 -73 197.5t-186.5 74.5t-187 -74.5t-73.5 -197.5t74 -198t187 -75t186 75t73 198zM141 93.5q-102 100.5 -102 254t102 253t251 99.5t250.5 -99.5t101.5 -253.5t-101.5 -254t-250.5 -100t-251 100.5zM276 801l213 126v-84l-213 -112v70z" />
    <glyph glyph-name="Ocircumflex" unicode="&#xd4;" horiz-adv-x="782" 
d="M651 347q0 123 -73 197.5t-186.5 74.5t-187 -74.5t-73.5 -197.5t74 -198t187 -75t186 75t73 198zM141 93.5q-102 100.5 -102 254t102 253t251 99.5t250.5 -99.5t101.5 -253.5t-101.5 -254t-250.5 -100t-251 100.5zM530 818v-77l-139 86l-138 -86v77l138 83z" />
    <glyph glyph-name="Otilde" unicode="&#xd5;" horiz-adv-x="782" 
d="M277 828q28 27 62.5 27t66.5 -22t50 -22q39 0 43 42h57q-7 -50 -35 -77.5t-62.5 -27.5t-67 22.5t-50 22.5t-29 -11t-13.5 -31h-57q7 50 35 77zM651 347q0 123 -73 197.5t-186.5 74.5t-187 -74.5t-73.5 -197.5t74 -198t187 -75t186 75t73 198zM141 93.5
q-102 100.5 -102 254t102 253t251 99.5t250.5 -99.5t101.5 -253.5t-101.5 -254t-250.5 -100t-251 100.5z" />
    <glyph glyph-name="Odieresis" unicode="&#xd6;" horiz-adv-x="782" 
d="M651 347q0 123 -73 197.5t-186.5 74.5t-187 -74.5t-73.5 -197.5t74 -198t187 -75t186 75t73 198zM141 93.5q-102 100.5 -102 254t102 253t251 99.5t250.5 -99.5t101.5 -253.5t-101.5 -254t-250.5 -100t-251 100.5zM472 764q-22 0 -38 16t-16 38t16 38t38 16t38 -16
t16 -38t-16 -38t-38 -16zM311 764q-23 0 -38.5 16t-15.5 38t15.5 38t38.5 16t38.5 -16t15.5 -38t-15.5 -38t-38.5 -16z" />
    <glyph glyph-name="multiply" unicode="&#xd7;" horiz-adv-x="719" 
d="M575 522l-157 -156l157 -158l-57 -57l-157 158l-159 -158l-59 60l158 157l-155 156l57 57l155 -156l157 156z" />
    <glyph glyph-name="Oslash" unicode="&#xd8;" horiz-adv-x="782" 
d="M657 586q87 -98 87 -245.5t-101.5 -247.5t-250.5 -100q-124 0 -218 72l-60 -65h-86l100 107q-89 99 -89 246.5t102 247t251 99.5q123 0 218 -71l60 64h86zM392 619q-114 0 -187.5 -74.5t-73.5 -188.5t55 -185l367 396q-69 52 -161 52zM392 74q113 0 186 75t73 198
q0 102 -54 175l-366 -396q67 -52 161 -52z" />
    <glyph glyph-name="Ugrave" unicode="&#xd9;" horiz-adv-x="673" 
d="M221 843v84l213 -126v-70zM74 243v450h92v-450q0 -86 45.5 -128.5t125.5 -42.5t126 42.5t46 128.5v450h91v-450q0 -122 -74.5 -186t-189 -64t-188.5 64t-74 186z" />
    <glyph glyph-name="Uacute" unicode="&#xda;" horiz-adv-x="673" 
d="M74 243v450h92v-450q0 -86 45.5 -128.5t125.5 -42.5t126 42.5t46 128.5v450h91v-450q0 -122 -74.5 -186t-189 -64t-188.5 64t-74 186zM221 801l213 126v-84l-213 -112v70z" />
    <glyph glyph-name="Ucircumflex" unicode="&#xdb;" horiz-adv-x="673" 
d="M74 243v450h92v-450q0 -86 45.5 -128.5t125.5 -42.5t126 42.5t46 128.5v450h91v-450q0 -122 -74.5 -186t-189 -64t-188.5 64t-74 186zM475 818v-77l-139 86l-138 -86v77l138 83z" />
    <glyph glyph-name="Udieresis" unicode="&#xdc;" horiz-adv-x="673" 
d="M74 243v450h92v-450q0 -86 45.5 -128.5t125.5 -42.5t126 42.5t46 128.5v450h91v-450q0 -122 -74.5 -186t-189 -64t-188.5 64t-74 186zM417 764q-23 0 -38.5 16t-15.5 38t15.5 38t38.5 16t38.5 -16t15.5 -38t-15.5 -38t-38.5 -16zM256 764q-22 0 -38 16t-16 38t16 38
t38 16t38 -16t16 -38t-16 -38t-38 -16z" />
    <glyph glyph-name="Yacute" unicode="&#xdd;" horiz-adv-x="572" 
d="M332 0h-91v262l-226 431h100l171 -347l170 347h101l-225 -431v-262zM384 927v-84l-213 -112v70z" />
    <glyph glyph-name="Thorn" unicode="&#xde;" horiz-adv-x="578" 
d="M478.5 493.5q61.5 -56.5 61.5 -145.5t-59.5 -146.5t-180.5 -57.5h-134v-144h-91v693h90v-143h135q117 0 178.5 -56.5zM166 216h134q75 0 111.5 34.5t36.5 95.5q0 132 -148 132h-134v-262z" />
    <glyph glyph-name="germandbls" unicode="&#xdf;" horiz-adv-x="655" 
d="M626 175q0 -83 -59 -133.5t-136 -50.5t-133 46t-56 125h80q3 -42 30.5 -66.5t76.5 -24.5t76.5 30.5t27.5 73.5q0 66 -85 120l-158 101v48l33 17q63 33 63 103q0 46 -30.5 77t-77.5 31t-79.5 -32t-32.5 -84v-556h-91v553q0 91 57.5 144t150.5 53t144.5 -50.5t51.5 -119.5
q0 -91 -91 -139l106 -67q71 -44 101.5 -89.5t30.5 -109.5z" />
    <glyph glyph-name="agrave" unicode="&#xe0;" horiz-adv-x="670" 
d="M219 699v84l213 -126v-70zM503 274q0 93 -54.5 149t-131 56t-131 -54t-54.5 -147t55 -151t131 -58t130.5 56t54.5 149zM114 71.5q-75 80.5 -75 206t74.5 203t187.5 77.5q70 0 122.5 -33t79.5 -86v110h92v-549h-92v112q-27 -54 -79.5 -87.5t-122.5 -33.5q-112 0 -187 80.5
z" />
    <glyph glyph-name="aacute" unicode="&#xe1;" horiz-adv-x="670" 
d="M219 657l213 126v-84l-213 -112v70zM503 274q0 93 -54.5 149t-131 56t-131 -54t-54.5 -147t55 -151t131 -58t130.5 56t54.5 149zM114 71.5q-75 80.5 -75 206t74.5 203t187.5 77.5q70 0 122.5 -33t79.5 -86v110h92v-549h-92v112q-27 -54 -79.5 -87.5t-122.5 -33.5
q-112 0 -187 80.5z" />
    <glyph glyph-name="acircumflex" unicode="&#xe2;" horiz-adv-x="670" 
d="M473 674v-77l-139 86l-138 -86v77l138 83zM503 274q0 93 -54.5 149t-131 56t-131 -54t-54.5 -147t55 -151t131 -58t130.5 56t54.5 149zM114 71.5q-75 80.5 -75 206t74.5 203t187.5 77.5q70 0 122.5 -33t79.5 -86v110h92v-549h-92v112q-27 -54 -79.5 -87.5t-122.5 -33.5
q-112 0 -187 80.5z" />
    <glyph glyph-name="atilde" unicode="&#xe3;" horiz-adv-x="670" 
d="M220 684q28 27 63 27t67 -22t50 -22q38 0 42 42h57q-7 -50 -35 -77.5t-62 -27.5t-67 22.5t-50 22.5t-29 -11t-14 -31h-57q7 50 35 77zM503 274q0 93 -54.5 149t-131 56t-131 -54t-54.5 -147t55 -151t131 -58t130.5 56t54.5 149zM114 71.5q-75 80.5 -75 206t74.5 203
t187.5 77.5q70 0 122.5 -33t79.5 -86v110h92v-549h-92v112q-27 -54 -79.5 -87.5t-122.5 -33.5q-112 0 -187 80.5z" />
    <glyph glyph-name="adieresis" unicode="&#xe4;" horiz-adv-x="670" 
d="M415 620q-23 0 -38.5 16t-15.5 38t15.5 38t38.5 16t38.5 -16t15.5 -38t-15.5 -38t-38.5 -16zM254 620q-22 0 -38 16t-16 38t16 38t38 16t38 -16t16 -38t-16 -38t-38 -16zM503 274q0 93 -54.5 149t-131 56t-131 -54t-54.5 -147t55 -151t131 -58t130.5 56t54.5 149z
M114 71.5q-75 80.5 -75 206t74.5 203t187.5 77.5q70 0 122.5 -33t79.5 -86v110h92v-549h-92v112q-27 -54 -79.5 -87.5t-122.5 -33.5q-112 0 -187 80.5z" />
    <glyph glyph-name="aring" unicode="&#xe5;" horiz-adv-x="670" 
d="M387 713q0 23 -15 37.5t-37.5 14.5t-37.5 -14.5t-15 -37.5t15 -38t37.5 -15t37.5 15t15 38zM230 712q0 47 30 76t74.5 29t74.5 -28.5t30 -76t-30 -76t-74.5 -28.5t-74.5 28.5t-30 75.5zM503 274q0 93 -54.5 149t-131 56t-131 -54t-54.5 -147t55 -151t131 -58t130.5 56
t54.5 149zM114 71.5q-75 80.5 -75 206t74.5 203t187.5 77.5q70 0 122.5 -33t79.5 -86v110h92v-549h-92v112q-27 -54 -79.5 -87.5t-122.5 -33.5q-112 0 -187 80.5z" />
    <glyph glyph-name="ae" unicode="&#xe6;" horiz-adv-x="1084" 
d="M592 549v-89q38 53 85.5 75.5t111.5 22.5q114 0 185.5 -74.5t71.5 -186.5q0 -29 -4 -54h-444q8 -81 60.5 -129t121.5 -48q112 0 149 91h98q-26 -73 -87.5 -119.5t-154.5 -46.5q-61 0 -112 27.5t-81 74.5v-93h-91v94q-31 -47 -83.5 -75t-116.5 -28q-112 0 -187 80.5
t-75 206.5t76 203t200 77t186 -98v89h91zM187 127q55 -58 131 -58t130.5 56t54.5 149t-54.5 149t-131 56t-131 -54t-54.5 -147t55 -151zM903.5 436q-47.5 47 -120 47t-124.5 -48t-61 -126h354q-1 80 -48.5 127z" />
    <glyph glyph-name="ccedilla" unicode="&#xe7;" horiz-adv-x="600" 
d="M305 483q-78 0 -125.5 -54.5t-47.5 -154t47.5 -154t125.5 -54.5q117 0 151 102h98q-24 -75 -79 -122t-140 -54v-45q58 0 94 -27.5t36 -74.5t-35.5 -76t-91.5 -29h-119v63h107q56 0 56 41.5t-56 41.5h-55v107q-104 11 -168 87.5t-64 199t74 200.5t192 78q99 0 161.5 -46
t87.5 -131h-98q-16 48 -55 75t-96 27z" />
    <glyph glyph-name="egrave" unicode="&#xe8;" horiz-adv-x="611" 
d="M305 -9q-118 0 -192 78t-74 206t75 205.5t194.5 77.5t192 -73.5t72.5 -187.5q0 -29 -4 -54h-437q4 -82 51.5 -129.5t121.5 -47.5q56 0 94.5 25t56.5 66h98q-26 -72 -89.5 -119t-159.5 -47zM428 435.5q-49 47.5 -121.5 47.5t-120.5 -46.5t-53 -127.5h345q-1 79 -50 126.5z
M403 657v-70l-213 112v84z" />
    <glyph glyph-name="eacute" unicode="&#xe9;" horiz-adv-x="611" 
d="M305 -9q-118 0 -192 78t-74 206t75 205.5t194.5 77.5t192 -73.5t72.5 -187.5q0 -29 -4 -54h-437q4 -82 51.5 -129.5t121.5 -47.5q56 0 94.5 25t56.5 66h98q-26 -72 -89.5 -119t-159.5 -47zM428 435.5q-49 47.5 -121.5 47.5t-120.5 -46.5t-53 -127.5h345q-1 79 -50 126.5z
M403 783v-84l-213 -112v70z" />
    <glyph glyph-name="ecircumflex" unicode="&#xea;" horiz-adv-x="611" 
d="M305 -9q-118 0 -192 78t-74 206t75 205.5t194.5 77.5t192 -73.5t72.5 -187.5q0 -29 -4 -54h-437q4 -82 51.5 -129.5t121.5 -47.5q56 0 94.5 25t56.5 66h98q-26 -72 -89.5 -119t-159.5 -47zM428 435.5q-49 47.5 -121.5 47.5t-120.5 -46.5t-53 -127.5h345q-1 79 -50 126.5z
M444 597l-139 86l-138 -86v77l138 83l139 -83v-77z" />
    <glyph glyph-name="edieresis" unicode="&#xeb;" horiz-adv-x="611" 
d="M305 -9q-118 0 -192 78t-74 206t75 205.5t194.5 77.5t192 -73.5t72.5 -187.5q0 -29 -4 -54h-437q4 -82 51.5 -129.5t121.5 -47.5q56 0 94.5 25t56.5 66h98q-26 -72 -89.5 -119t-159.5 -47zM428 435.5q-49 47.5 -121.5 47.5t-120.5 -46.5t-53 -127.5h345q-1 79 -50 126.5z
M225 620q-23 0 -38.5 16t-15.5 38t15.5 38t38.5 16t38.5 -16t15.5 -38t-15.5 -38t-38.5 -16zM386 620q-22 0 -38 16t-16 38t16 38t38 16t38 -16t16 -38t-16 -38t-38 -16z" />
    <glyph glyph-name="igrave" unicode="&#xec;" horiz-adv-x="241" 
d="M5 699v84l213 -126v-70zM75 0v549h91v-549h-91z" />
    <glyph glyph-name="iacute" unicode="&#xed;" horiz-adv-x="241" 
d="M75 0v549h91v-549h-91zM5 657l213 126v-84l-213 -112v70z" />
    <glyph glyph-name="icircumflex" unicode="&#xee;" horiz-adv-x="241" 
d="M75 0v549h91v-549h-91zM259 674v-77l-139 86l-138 -86v77l138 83z" />
    <glyph glyph-name="idieresis" unicode="&#xef;" horiz-adv-x="241" 
d="M75 0v549h91v-549h-91zM201 620q-23 0 -38.5 16t-15.5 38t15.5 38t38.5 16t38.5 -16t15.5 -38t-15.5 -38t-38.5 -16zM40 620q-22 0 -38 16t-16 38t16 38t38 16t38 -16t16 -38t-16 -38t-38 -16z" />
    <glyph glyph-name="eth" unicode="&#xf0;" horiz-adv-x="630" 
d="M591 317q0 -158 -78 -242t-200.5 -84t-198 78t-75.5 205.5t78 205.5t196 78q96 0 169 -68q-30 73 -92 141l-128 -43v59l84 28q-25 24 -75 65h100q27 -22 46 -41l136 46v-59l-93 -31q131 -149 131 -338zM181.5 121q50.5 -55 127.5 -55t133 55.5t56 153.5t-54 153t-131 55
t-129.5 -55t-52.5 -153.5t50.5 -153.5z" />
    <glyph glyph-name="ntilde" unicode="&#xf1;" horiz-adv-x="628" 
d="M166 549v-89q56 98 179 98q91 0 152 -60.5t61 -172.5v-325h-90v310q0 83 -40 126t-110.5 43t-111 -43t-40.5 -126v-310h-91v549h91zM449 631.5q-28 -27.5 -62.5 -27.5t-66.5 22.5t-50 22.5t-29.5 -11t-13.5 -31h-57q7 50 35 77t62.5 27t66.5 -22t50 -22q39 0 43 42h57
q-7 -50 -35 -77.5z" />
    <glyph glyph-name="ograve" unicode="&#xf2;" horiz-adv-x="632" 
d="M200 699v84l213 -126v-70zM442.5 121.5q56.5 55.5 56.5 153.5t-54 153t-131.5 55t-129.5 -55t-52 -153.5t50 -153.5t127 -55t133.5 55.5zM39 274q0 127 79 205.5t198 78.5t198 -78.5t79 -205t-82.5 -205t-201.5 -78.5t-194.5 78t-75.5 205z" />
    <glyph glyph-name="oacute" unicode="&#xf3;" horiz-adv-x="632" 
d="M442.5 121.5q56.5 55.5 56.5 153.5t-54 153t-131.5 55t-129.5 -55t-52 -153.5t50 -153.5t127 -55t133.5 55.5zM39 274q0 127 79 205.5t198 78.5t198 -78.5t79 -205t-82.5 -205t-201.5 -78.5t-194.5 78t-75.5 205zM200 657l213 126v-84l-213 -112v70z" />
    <glyph glyph-name="ocircumflex" unicode="&#xf4;" horiz-adv-x="632" 
d="M442.5 121.5q56.5 55.5 56.5 153.5t-54 153t-131.5 55t-129.5 -55t-52 -153.5t50 -153.5t127 -55t133.5 55.5zM39 274q0 127 79 205.5t198 78.5t198 -78.5t79 -205t-82.5 -205t-201.5 -78.5t-194.5 78t-75.5 205zM455 674v-77l-139 86l-138 -86v77l138 83z" />
    <glyph glyph-name="otilde" unicode="&#xf5;" horiz-adv-x="632" 
d="M201 684q28 27 62.5 27t66.5 -22t50 -22q39 0 43 42h57q-7 -50 -35 -77.5t-62.5 -27.5t-66.5 22.5t-50 22.5t-29.5 -11t-13.5 -31h-57q7 50 35 77zM442.5 121.5q56.5 55.5 56.5 153.5t-54 153t-131.5 55t-129.5 -55t-52 -153.5t50 -153.5t127 -55t133.5 55.5zM39 274
q0 127 79 205.5t198 78.5t198 -78.5t79 -205t-82.5 -205t-201.5 -78.5t-194.5 78t-75.5 205z" />
    <glyph glyph-name="odieresis" unicode="&#xf6;" horiz-adv-x="632" 
d="M442.5 121.5q56.5 55.5 56.5 153.5t-54 153t-131.5 55t-129.5 -55t-52 -153.5t50 -153.5t127 -55t133.5 55.5zM39 274q0 127 79 205.5t198 78.5t198 -78.5t79 -205t-82.5 -205t-201.5 -78.5t-194.5 78t-75.5 205zM396 620q-22 0 -38 16t-16 38t16 38t38 16t38 -16t16 -38
t-16 -38t-38 -16zM235 620q-23 0 -38.5 16t-15.5 38t15.5 38t38.5 16t38.5 -16t15.5 -38t-15.5 -38t-38.5 -16z" />
    <glyph glyph-name="divide" unicode="&#xf7;" horiz-adv-x="708" 
d="M110 326v80h509v-80h-509zM406 537q-17 -17 -41.5 -17t-41.5 17t-17 41.5t17 41.5t41.5 17t41.5 -17t17 -41.5t-17 -41.5zM406 112q-17 -17 -41.5 -17t-41.5 17t-17 41t17 41t41.5 17t41.5 -17t17 -41t-17 -41z" />
    <glyph glyph-name="oslash" unicode="&#xf8;" horiz-adv-x="632" 
d="M527 465q66 -77 66 -197t-82.5 -198.5t-202.5 -78.5q-95 0 -165 53l-40 -44h-74l74 82q-64 77 -64 198t79 199.5t198 78.5q97 0 171 -55l42 46h74zM431 441q-49 42 -122 42t-125 -55t-52 -154q0 -76 31 -127zM198 105q45 -39 116.5 -39t128 55.5t56.5 152.5q0 74 -32 125
z" />
    <glyph glyph-name="ugrave" unicode="&#xf9;" horiz-adv-x="628" 
d="M462 549h91v-549h-91v88q-55 -97 -179 -97q-91 0 -152 60.5t-61 171.5v326h90v-311q0 -82 40.5 -125.5t110.5 -43.5t110.5 43.5t40.5 125.5v311zM412 657v-70l-213 112v84z" />
    <glyph glyph-name="uacute" unicode="&#xfa;" horiz-adv-x="628" 
d="M462 549h91v-549h-91v88q-55 -97 -179 -97q-91 0 -152 60.5t-61 171.5v326h90v-311q0 -82 40.5 -125.5t110.5 -43.5t110.5 43.5t40.5 125.5v311zM412 783v-84l-213 -112v70z" />
    <glyph glyph-name="ucircumflex" unicode="&#xfb;" horiz-adv-x="628" 
d="M462 549h91v-549h-91v88q-55 -97 -179 -97q-91 0 -152 60.5t-61 171.5v326h90v-311q0 -82 40.5 -125.5t110.5 -43.5t110.5 43.5t40.5 125.5v311zM453 597l-139 86l-138 -86v77l138 83l139 -83v-77z" />
    <glyph glyph-name="udieresis" unicode="&#xfc;" horiz-adv-x="628" 
d="M462 549h91v-549h-91v88q-55 -97 -179 -97q-91 0 -152 60.5t-61 171.5v326h90v-311q0 -82 40.5 -125.5t110.5 -43.5t110.5 43.5t40.5 125.5v311zM234 620q-22 0 -38 16t-16 38t16 38t38 16t38 -16t16 -38t-16 -38t-38 -16zM395 620q-23 0 -38.5 16t-15.5 38t15.5 38
t38.5 16t38.5 -16t15.5 -38t-15.5 -38t-38.5 -16z" />
    <glyph glyph-name="yacute" unicode="&#xfd;" horiz-adv-x="557" 
d="M164 657l213 126v-84l-213 -112v70zM229 9l-217 540h100l168 -444l171 444h94l-331 -806h-94z" />
    <glyph glyph-name="thorn" unicode="&#xfe;" horiz-adv-x="670" 
d="M482.5 126.5q54.5 57.5 54.5 151t-54.5 147.5t-131 54t-131 -56t-54.5 -148.5t54.5 -149t131 -56.5t131 57.5zM369 558q113 0 187.5 -77.5t74.5 -203t-75 -206t-187 -80.5q-70 0 -122.5 33.5t-80.5 87.5v-372h-91v1000h91v-301q28 53 80.5 86t122.5 33z" />
    <glyph glyph-name="ydieresis" unicode="&#xff;" horiz-adv-x="557" 
d="M360 620q-22 0 -38 16t-16 38t16 38t38 16t38 -16t16 -38t-16 -38t-38 -16zM199 620q-23 0 -38.5 16t-15.5 38t15.5 38t38.5 16t38.5 -16t15.5 -38t-15.5 -38t-38.5 -16zM229 9l-217 540h100l168 -444l171 444h94l-331 -806h-94z" />
    <glyph glyph-name="Amacron" unicode="&#x100;" horiz-adv-x="691" 
d="M553 0l-54 152h-308l-54 -152h-93l252 693h100l251 -693h-94zM217 224h256l-128 358zM522 854v-73h-352v73h352z" />
    <glyph glyph-name="amacron" unicode="&#x101;" horiz-adv-x="670" 
d="M158 637v73h352v-73h-352zM503 274q0 93 -54.5 149t-131 56t-131 -54t-54.5 -147t55 -151t131 -58t130.5 56t54.5 149zM114 71.5q-75 80.5 -75 206t74.5 203t187.5 77.5q70 0 122.5 -33t79.5 -86v110h92v-549h-92v112q-27 -54 -79.5 -87.5t-122.5 -33.5q-112 0 -187 80.5
z" />
    <glyph glyph-name="Abreve" unicode="&#x102;" horiz-adv-x="691" 
d="M553 0l-54 152h-308l-54 -152h-93l252 693h100l251 -693h-94zM217 224h256l-128 358zM489 902v-19q0 -57 -38 -93t-105 -36t-104.5 36.5t-37.5 93.5v18h57q0 -37 19 -55.5t66 -18.5t66 18.5t19 55.5h58z" />
    <glyph glyph-name="abreve" unicode="&#x103;" horiz-adv-x="670" 
d="M477 739q0 -57 -38 -93t-105 -36t-104.5 36.5t-37.5 93.5v18h57q0 -37 19 -55.5t66 -18.5t66 18.5t19 55.5h58v-19zM503 274q0 93 -54.5 149t-131 56t-131 -54t-54.5 -147t55 -151t131 -58t130.5 56t54.5 149zM114 71.5q-75 80.5 -75 206t74.5 203t187.5 77.5
q70 0 122.5 -33t79.5 -86v110h92v-549h-92v112q-27 -54 -79.5 -87.5t-122.5 -33.5q-112 0 -187 80.5z" />
    <glyph glyph-name="Aogonek" unicode="&#x104;" horiz-adv-x="691" 
d="M600 -139h79v-63h-91q-55 0 -90.5 29t-35.5 72q0 84 92 101l-55 152h-307l-55 -152h-93l252 693h100l251 -691v-58h-47q-56 0 -56 -41.5t56 -41.5zM217 224h256l-128 357z" />
    <glyph glyph-name="aogonek" unicode="&#x105;" horiz-adv-x="670" 
d="M548 -139h79v-63h-91q-56 0 -91.5 28.5t-35.5 72t25.5 69.5t68.5 34v110q-27 -54 -79.5 -87.5t-122.5 -33.5q-112 0 -187 80.5t-75 206t74.5 203t187.5 77.5q70 0 122.5 -33t79.5 -86v110h92v-605h-47q-56 0 -56 -41.5t56 -41.5zM187 127q55 -58 131 -58t130.5 56
t54.5 149t-54.5 149t-131 56t-131 -54t-54.5 -147t55 -151z" />
    <glyph glyph-name="Cacute" unicode="&#x106;" horiz-adv-x="777" 
d="M141 94q-102 100 -102 253.5t102 253t251 99.5q108 0 192.5 -51t124.5 -147h-110q-62 117 -207 117q-113 0 -186.5 -74.5t-73.5 -197.5t73.5 -198t186.5 -75q69 0 123 30.5t84 87.5h110q-40 -96 -124.5 -147t-192.5 -51q-149 0 -251 100zM273 801l213 126v-84l-213 -112
v70z" />
    <glyph glyph-name="cacute" unicode="&#x107;" horiz-adv-x="600" 
d="M113 69q-74 78 -74 205.5t74 205.5t192 78q99 0 161.5 -46t87.5 -131h-98q-16 48 -55 75t-96 27q-78 0 -125.5 -54.5t-47.5 -154t47.5 -154t125.5 -54.5q117 0 151 102h98q-25 -81 -88.5 -129t-160.5 -48q-118 0 -192 78zM184 657l213 126v-84l-213 -112v70z" />
    <glyph glyph-name="Ccaron" unicode="&#x10c;" horiz-adv-x="777" 
d="M141 94q-102 100 -102 253.5t102 253t251 99.5q108 0 192.5 -51t124.5 -147h-110q-62 117 -207 117q-113 0 -186.5 -74.5t-73.5 -197.5t73.5 -198t186.5 -75q69 0 123 30.5t84 87.5h110q-40 -96 -124.5 -147t-192.5 -51q-149 0 -251 100zM388 815l139 86v-77l-139 -83
l-138 83v77z" />
    <glyph glyph-name="ccaron" unicode="&#x10d;" horiz-adv-x="600" 
d="M113 69q-74 78 -74 205.5t74 205.5t192 78q99 0 161.5 -46t87.5 -131h-98q-16 48 -55 75t-96 27q-78 0 -125.5 -54.5t-47.5 -154t47.5 -154t125.5 -54.5q117 0 151 102h98q-25 -81 -88.5 -129t-160.5 -48q-118 0 -192 78zM300 671l139 86v-77l-139 -83l-138 83v77z" />
    <glyph glyph-name="Dcaron" unicode="&#x10e;" horiz-adv-x="696" 
d="M166 70h128q131 0 200 72t69 201t-69 201t-200 72h-128v-546zM294 693q168 0 265 -94t97 -256t-97 -252.5t-265 -90.5h-219v693h219zM348 815l139 86v-77l-139 -83l-138 83v77z" />
    <glyph glyph-name="dcaron" unicode="&#x10f;" horiz-adv-x="759" 
d="M503 274q0 93 -54.5 149t-131 56t-131 -54t-54.5 -147t55 -151t131 -58t130.5 56t54.5 149zM114 71.5q-75 80.5 -75 206t74.5 203t187.5 77.5q70 0 122.5 -33t79.5 -86v301h92v-740h-92v112q-27 -54 -79.5 -87.5t-122.5 -33.5q-112 0 -187 80.5zM646 740h91
q12 -53 12 -92q0 -113 -102 -113v44q48 0 48 52v23h-49v86z" />
    <glyph glyph-name="Dcroat" unicode="&#x110;" horiz-adv-x="712" 
d="M91 693h219q168 0 265 -94t97 -256t-97 -252.5t-265 -90.5h-219v302h-87v82h87v309zM182 70h128q130 0 199.5 72t69.5 201t-69.5 201t-199.5 72h-128v-232h192v-82h-192v-232z" />
    <glyph glyph-name="dcroat" unicode="&#x111;" horiz-adv-x="670" 
d="M655 649v-59h-60v-590h-92v112q-27 -54 -79.5 -87.5t-122.5 -33.5q-112 0 -187 80.5t-75 206t74.5 203t187.5 77.5q70 0 122.5 -33t79.5 -86v151h-84v59h84v91h92v-91h60zM187 127q55 -58 131 -58t130.5 56t54.5 149t-54.5 149t-131 56t-131 -54t-54.5 -147t55 -151z" />
    <glyph glyph-name="Emacron" unicode="&#x112;" horiz-adv-x="505" 
d="M77 781v73h352v-73h-352zM442 693v-72h-276v-236h246v-71h-246v-242h276v-72h-367v693h367z" />
    <glyph glyph-name="emacron" unicode="&#x113;" horiz-adv-x="611" 
d="M305 -9q-118 0 -192 78t-74 206t75 205.5t194.5 77.5t192 -73.5t72.5 -187.5q0 -29 -4 -54h-437q4 -82 51.5 -129.5t121.5 -47.5q56 0 94.5 25t56.5 66h98q-26 -72 -89.5 -119t-159.5 -47zM428 435.5q-49 47.5 -121.5 47.5t-120.5 -46.5t-53 -127.5h345q-1 79 -50 126.5z
M481 710v-73h-352v73h352z" />
    <glyph glyph-name="Edotaccent" unicode="&#x116;" horiz-adv-x="505" 
d="M253 764q-23 0 -38.5 16t-15.5 38t15.5 38t38.5 16t38.5 -16t15.5 -38t-15.5 -38t-38.5 -16zM442 693v-72h-276v-236h246v-71h-246v-242h276v-72h-367v693h367z" />
    <glyph glyph-name="edotaccent" unicode="&#x117;" horiz-adv-x="611" 
d="M305 -9q-118 0 -192 78t-74 206t75 205.5t194.5 77.5t192 -73.5t72.5 -187.5q0 -29 -4 -54h-437q4 -82 51.5 -129.5t121.5 -47.5q56 0 94.5 25t56.5 66h98q-26 -72 -89.5 -119t-159.5 -47zM428 435.5q-49 47.5 -121.5 47.5t-120.5 -46.5t-53 -127.5h345q-1 79 -50 126.5z
M305 620q-23 0 -38.5 16t-15.5 38t15.5 38t38.5 16t38.5 -16t15.5 -38t-15.5 -38t-38.5 -16z" />
    <glyph glyph-name="Eogonek" unicode="&#x118;" horiz-adv-x="505" 
d="M395 -139h79v-63h-91q-56 0 -91.5 28.5t-35.5 71.5q0 83 85 102h-266v693h367v-72h-276v-236h246v-71h-246v-242h276v-128h-47q-56 0 -56 -41.5t56 -41.5z" />
    <glyph glyph-name="eogonek" unicode="&#x119;" horiz-adv-x="611" 
d="M497 -141h-91q-56 0 -91.5 28.5t-35.5 76.5q0 11 4 27q-109 8 -176.5 85t-67.5 202t75 202.5t194.5 77.5t192 -73.5t72.5 -187.5q0 -29 -4 -54h-437q4 -82 51.5 -129.5t121.5 -47.5q56 0 94.5 25t56.5 66h98q-39 -108 -146 -149q-25 -9 -35.5 -18t-10.5 -26q0 -42 56 -42
h79v-63zM428 435.5q-49 47.5 -121.5 47.5t-120.5 -46.5t-53 -127.5h345q-1 79 -50 126.5z" />
    <glyph glyph-name="Ecaron" unicode="&#x11a;" horiz-adv-x="505" 
d="M442 693v-72h-276v-236h246v-71h-246v-242h276v-72h-367v693h367zM252 815l139 86v-77l-139 -83l-138 83v77z" />
    <glyph glyph-name="ecaron" unicode="&#x11b;" horiz-adv-x="611" 
d="M305 -9q-118 0 -192 78t-74 206t75 205.5t194.5 77.5t192 -73.5t72.5 -187.5q0 -29 -4 -54h-437q4 -82 51.5 -129.5t121.5 -47.5q56 0 94.5 25t56.5 66h98q-26 -72 -89.5 -119t-159.5 -47zM428 435.5q-49 47.5 -121.5 47.5t-120.5 -46.5t-53 -127.5h345q-1 79 -50 126.5z
M444 680l-139 -83l-138 83v77l138 -86l139 86v-77z" />
    <glyph glyph-name="Gbreve" unicode="&#x11e;" horiz-adv-x="777" 
d="M531 883q0 -57 -38 -93t-105 -36t-104.5 36.5t-37.5 93.5v18h57q0 -37 19 -55.5t66 -18.5t66 18.5t19 55.5h58v-19zM141 94q-102 100 -102 253.5t102 253t251 99.5q108 0 192.5 -51t124.5 -147h-110q-62 117 -207 117q-113 0 -186.5 -74.5t-73.5 -197.5t73.5 -198
t183 -75t176 62t77.5 168h-286v72h382v-72q-14 -134 -111 -222t-240.5 -88t-245.5 100z" />
    <glyph glyph-name="gbreve" unicode="&#x11f;" horiz-adv-x="670" 
d="M477 739q0 -57 -38 -93t-105 -36t-104.5 36.5t-37.5 93.5v18h57q0 -37 19 -55.5t66 -18.5t66 18.5t19 55.5h58v-19zM114 71.5q-75 80.5 -75 206t74.5 203t187.5 77.5q70 0 122.5 -33t79.5 -86v110h92v-563q0 -113 -73 -184.5t-185 -71.5t-185.5 52t-83.5 136h89
q13 -47 61 -78t119 -31t118.5 46.5t47.5 130.5v126q-27 -54 -79.5 -87.5t-122.5 -33.5q-112 0 -187 80.5zM503 274q0 93 -54.5 149t-131 56t-131 -54t-54.5 -147t55 -151t131 -58t130.5 56t54.5 149z" />
    <glyph glyph-name="uni0122" unicode="&#x122;" horiz-adv-x="777" 
d="M141 94q-102 100 -102 253.5t102 253t251 99.5q108 0 192.5 -51t124.5 -147h-110q-62 117 -207 117q-113 0 -186.5 -74.5t-73.5 -197.5t73.5 -198t183 -75t176 62t77.5 168h-286v72h382v-72q-14 -134 -111 -222t-240.5 -88t-245.5 100zM339 -48h91q12 -53 12 -92
q0 -113 -102 -113v44q48 0 48 52v23h-49v86z" />
    <glyph glyph-name="uni0123" unicode="&#x123;" horiz-adv-x="670" 
d="M114 71.5q-75 80.5 -75 206t74.5 203t187.5 77.5q70 0 122.5 -33t79.5 -86v110h92v-563q0 -113 -73 -184.5t-185 -71.5t-185.5 52t-83.5 136h89q13 -47 61 -78t119 -31t118.5 46.5t47.5 130.5v126q-27 -54 -79.5 -87.5t-122.5 -33.5q-112 0 -187 80.5zM503 274
q0 93 -54.5 149t-131 56t-131 -54t-54.5 -147t55 -151t131 -58t130.5 56t54.5 149zM384 597h-91q-12 53 -12 92q0 113 102 113v-44q-48 0 -48 -52v-23h49v-86z" />
    <glyph glyph-name="Imacron" unicode="&#x12a;" horiz-adv-x="241" 
d="M-56 781v73h352v-73h-352zM75 0v693h91v-693h-91z" />
    <glyph glyph-name="imacron" unicode="&#x12b;" horiz-adv-x="241" 
d="M-56 637v73h352v-73h-352zM75 0v549h91v-549h-91z" />
    <glyph glyph-name="Iogonek" unicode="&#x12e;" horiz-adv-x="241" 
d="M120 -138h79v-63h-91q-56 0 -91.5 28.5t-35.5 72t25.5 69.5t68.5 34v690h91v-687h1v-61h-47q-56 0 -56 -41.5t56 -41.5z" />
    <glyph glyph-name="iogonek" unicode="&#x12f;" horiz-adv-x="241" 
d="M120 -138h79v-63h-91q-56 0 -91.5 28.5t-35.5 72t25.5 69.5t68.5 34v546h91v-543h1v-61h-47q-56 0 -56 -41.5t56 -41.5zM121 637q-26 0 -43.5 18t-17.5 44t18 44t43.5 18t43.5 -18t18 -44t-18 -44t-44 -18z" />
    <glyph glyph-name="Idotaccent" unicode="&#x130;" horiz-adv-x="241" 
d="M120 764q-22 0 -38 16t-16 38t16 38t38 16t38 -16t16 -38t-16 -38t-38 -16zM75 0v693h91v-693h-91z" />
    <glyph glyph-name="dotlessi" unicode="&#x131;" horiz-adv-x="241" 
d="M75 0v549h91v-549h-91z" />
    <glyph glyph-name="uni0136" unicode="&#x136;" horiz-adv-x="598" 
d="M166 0h-91v693h91v-321l285 321h119l-324 -351l324 -342h-121l-283 310v-310zM250 -48h91q12 -53 12 -92q0 -113 -102 -113v44q48 0 48 52v23h-49v86z" />
    <glyph glyph-name="uni0137" unicode="&#x137;" horiz-adv-x="513" 
d="M166 0h-91v740h91v-434l210 243h128l-259 -273l259 -276h-123l-215 241v-241zM208 -48h91q12 -53 12 -92q0 -113 -102 -113v44q48 0 48 52v23h-49v86z" />
    <glyph glyph-name="Lacute" unicode="&#x139;" horiz-adv-x="429" 
d="M75 693h91v-623h243v-70h-334v693zM99 801l213 126v-84l-213 -112v70z" />
    <glyph glyph-name="lacute" unicode="&#x13a;" horiz-adv-x="241" 
d="M75 0v740h91v-740h-91zM5 848l213 126v-84l-213 -112v70z" />
    <glyph glyph-name="uni013B" unicode="&#x13b;" horiz-adv-x="429" 
d="M75 693h91v-623h243v-70h-334v693zM190 -48h91q12 -53 12 -92q0 -113 -102 -113v44q48 0 48 52v23h-49v86z" />
    <glyph glyph-name="uni013C" unicode="&#x13c;" horiz-adv-x="241" 
d="M75 0v740h91v-740h-91zM72 -48h91q12 -52 12 -92q0 -113 -102 -113v44q48 0 48 52v23h-49v86z" />
    <glyph glyph-name="Lcaron" unicode="&#x13d;" horiz-adv-x="438" 
d="M75 693h91v-623h243v-70h-334v693zM282 692h91q12 -52 12 -92q0 -113 -102 -113v44q48 0 48 52v23h-49v86z" />
    <glyph glyph-name="lcaron" unicode="&#x13e;" horiz-adv-x="389" 
d="M75 0v740h91v-740h-91zM244 740h91q12 -53 12 -92q0 -113 -102 -113v44q48 0 48 52v23h-49v86z" />
    <glyph glyph-name="Lslash" unicode="&#x141;" horiz-adv-x="429" 
d="M182 70h243v-70h-334v303l-87 -31v82l87 31v308h91v-275l104 38v-82l-104 -38v-266z" />
    <glyph glyph-name="lslash" unicode="&#x142;" horiz-adv-x="241" 
d="M166 0h-91v295l-71 -28v82l71 28v363h91v-328l71 28v-82l-71 -28v-330z" />
    <glyph glyph-name="Nacute" unicode="&#x143;" horiz-adv-x="698" 
d="M532 693h91v-693h-91l-366 550v-550h-91v693h91l366 -550v550zM234 801l213 126v-84l-213 -112v70z" />
    <glyph glyph-name="nacute" unicode="&#x144;" horiz-adv-x="628" 
d="M166 549v-89q56 98 179 98q91 0 152 -60.5t61 -172.5v-325h-90v310q0 83 -40 126t-110.5 43t-111 -43t-40.5 -126v-310h-91v549h91zM417 783v-84l-213 -112v70z" />
    <glyph glyph-name="uni0145" unicode="&#x145;" horiz-adv-x="698" 
d="M532 693h91v-693h-91l-366 550v-550h-91v693h91l366 -550v550zM301 -48h91q12 -53 12 -92q0 -113 -102 -113v44q48 0 48 52v23h-49v86z" />
    <glyph glyph-name="uni0146" unicode="&#x146;" horiz-adv-x="628" 
d="M166 549v-89q56 98 179 98q91 0 152 -60.5t61 -172.5v-325h-90v310q0 83 -40 126t-110.5 43t-111 -43t-40.5 -126v-310h-91v549h91zM266 -48h91q12 -53 12 -92q0 -113 -102 -113v44q48 0 48 52v23h-49v86z" />
    <glyph glyph-name="Ncaron" unicode="&#x147;" horiz-adv-x="698" 
d="M532 693h91v-693h-91l-366 550v-550h-91v693h91l366 -550v550zM349 815l139 86v-77l-139 -83l-138 83v77z" />
    <glyph glyph-name="ncaron" unicode="&#x148;" horiz-adv-x="628" 
d="M166 549v-89q56 98 179 98q91 0 152 -60.5t61 -172.5v-325h-90v310q0 83 -40 126t-110.5 43t-111 -43t-40.5 -126v-310h-91v549h91zM458 680l-139 -83l-138 83v77l138 -86l139 86v-77z" />
    <glyph glyph-name="Omacron" unicode="&#x14c;" horiz-adv-x="782" 
d="M651 347q0 123 -73 197.5t-186.5 74.5t-187 -74.5t-73.5 -197.5t74 -198t187 -75t186 75t73 198zM141 93.5q-102 100.5 -102 254t102 253t251 99.5t250.5 -99.5t101.5 -253.5t-101.5 -254t-250.5 -100t-251 100.5zM215 781v73h352v-73h-352z" />
    <glyph glyph-name="omacron" unicode="&#x14d;" horiz-adv-x="632" 
d="M442.5 121.5q56.5 55.5 56.5 153.5t-54 153t-131.5 55t-129.5 -55t-52 -153.5t50 -153.5t127 -55t133.5 55.5zM39 274q0 127 79 205.5t198 78.5t198 -78.5t79 -205t-82.5 -205t-201.5 -78.5t-194.5 78t-75.5 205zM140 637v73h352v-73h-352z" />
    <glyph glyph-name="Ohungarumlaut" unicode="&#x150;" horiz-adv-x="782" 
d="M651 347q0 123 -73 197.5t-186.5 74.5t-187 -74.5t-73.5 -197.5t74 -198t187 -75t186 75t73 198zM141 93.5q-102 100.5 -102 254t102 253t251 99.5t250.5 -99.5t101.5 -253.5t-101.5 -254t-250.5 -100t-251 100.5zM344 899h84l-89 -154h-62zM507 899h83l-101 -154h-62z
" />
    <glyph glyph-name="ohungarumlaut" unicode="&#x151;" horiz-adv-x="632" 
d="M442.5 121.5q56.5 55.5 56.5 153.5t-54 153t-131.5 55t-129.5 -55t-52 -153.5t50 -153.5t127 -55t133.5 55.5zM39 274q0 127 79 205.5t198 78.5t198 -78.5t79 -205t-82.5 -205t-201.5 -78.5t-194.5 78t-75.5 205zM268 755h84l-89 -154h-62zM431 755h83l-101 -154h-62z
" />
    <glyph glyph-name="OE" unicode="&#x152;" horiz-adv-x="1081" 
d="M1017 620h-275v-235h245v-72h-245v-241h275v-72h-366v130q-90 -137 -259 -137q-149 0 -251 100.5t-102 254.5t102.5 253t250.5 99q170 0 259 -138v131h366v-73zM131 347q0 -123 74 -198t187 -75t186 75t73 198t-73 197.5t-186.5 74.5t-187 -74.5t-73.5 -197.5z" />
    <glyph glyph-name="oe" unicode="&#x153;" horiz-adv-x="1071" 
d="M924.5 38q-63.5 -47 -148.5 -47q-162 0 -233 125q-37 -59 -99 -92t-136 -33q-118 0 -193.5 78t-75.5 205t79 205.5t198 78.5q72 0 132 -32.5t96 -91.5q34 59 93 91.5t135 32.5q116 0 188.5 -73.5t72.5 -187.5q0 -29 -4 -54h-436q4 -83 51.5 -130t112.5 -47q121 0 159 91
h98q-26 -72 -89.5 -119zM181.5 121q50.5 -55 127.5 -55t133 55.5t56 153.5t-54 153t-131 55t-129.5 -55t-52.5 -153.5t50.5 -153.5zM889 435.5q-49 47.5 -122 47.5t-120.5 -46.5t-52.5 -127.5h345q-1 79 -50 126.5z" />
    <glyph glyph-name="Racute" unicode="&#x154;" horiz-adv-x="617" 
d="M166 286v-286h-91v693h225q117 0 178.5 -57t61.5 -139.5t-45 -137.5t-135 -69l191 -290h-114l-182 286h-89zM166 620v-262h134q75 0 111.5 34.5t36.5 96.5q0 131 -148 131h-134zM406 927v-84l-213 -112v70z" />
    <glyph glyph-name="racute" unicode="&#x155;" horiz-adv-x="368" 
d="M166 549v-93q49 102 167 102v-95h-24q-70 0 -106.5 -36.5t-36.5 -126.5v-300h-91v549h91zM326 783v-84l-213 -112v70z" />
    <glyph glyph-name="uni0156" unicode="&#x156;" horiz-adv-x="617" 
d="M166 286v-286h-91v693h225q117 0 178.5 -57t61.5 -139.5t-45 -137.5t-135 -69l191 -290h-114l-182 286h-89zM166 620v-262h134q75 0 111.5 34.5t36.5 96.5q0 131 -148 131h-134zM260 -48h91q12 -53 12 -92q0 -113 -102 -113v44q48 0 48 52v23h-49v86z" />
    <glyph glyph-name="uni0157" unicode="&#x157;" horiz-adv-x="368" 
d="M166 549v-93q49 102 167 102v-95h-24q-70 0 -106.5 -36.5t-36.5 -126.5v-300h-91v549h91zM73 -48h91q12 -52 12 -92q0 -113 -102 -113v44q48 0 48 52v23h-49v86z" />
    <glyph glyph-name="Rcaron" unicode="&#x158;" horiz-adv-x="617" 
d="M166 286v-286h-91v693h225q117 0 178.5 -57t61.5 -139.5t-45 -137.5t-135 -69l191 -290h-114l-182 286h-89zM166 620v-262h134q75 0 111.5 34.5t36.5 96.5q0 131 -148 131h-134zM447 824l-139 -83l-138 83v77l138 -86l139 86v-77z" />
    <glyph glyph-name="rcaron" unicode="&#x159;" horiz-adv-x="368" 
d="M228 671l139 86v-77l-139 -83l-138 83v77zM166 549v-93q49 102 167 102v-95h-24q-70 0 -106.5 -36.5t-36.5 -126.5v-300h-91v549h91z" />
    <glyph glyph-name="Sacute" unicode="&#x15a;" horiz-adv-x="587" 
d="M149 508q0 -38 21 -63t54 -37t73.5 -21t81 -20.5t73.5 -29.5t54 -54t21 -89q0 -81 -62 -141t-167.5 -60t-171.5 48.5t-66 131.5h97q4 -47 37.5 -76t99.5 -29t105 34t39 79.5t-21 70t-54 36.5t-73.5 20.5t-81 20.5t-73.5 30.5t-54 55t-21 90.5q0 88 62.5 141.5t163 53.5
t160 -46.5t68.5 -128.5h-101q-4 41 -38.5 70t-93 29t-95.5 -29.5t-37 -86.5zM178 801l213 126v-84l-213 -112v70z" />
    <glyph glyph-name="sacute" unicode="&#x15b;" horiz-adv-x="526" 
d="M55 394q0 69 57.5 116.5t149 47.5t143.5 -46.5t57 -127.5h-94q-2 46 -31 74t-80.5 28t-81 -24.5t-29.5 -63t33.5 -59.5t81 -30.5t95 -22t81 -47t33.5 -98t-57.5 -107t-149.5 -43.5t-147.5 46t-60.5 127h94q2 -46 32.5 -73.5t84 -27.5t84 23t30.5 58.5t-24 56.5t-60 29
t-78.5 19t-78.5 23.5t-60 43.5t-24 78zM147 657l213 126v-84l-213 -112v70z" />
    <glyph glyph-name="Scedilla" unicode="&#x15e;" horiz-adv-x="587" 
d="M374.5 595q-34.5 29 -93 29t-95.5 -29.5t-37 -86.5q0 -38 21 -63t54 -37t73.5 -21t81 -20.5t73.5 -29.5t54 -54t21 -89q0 -74 -52.5 -131.5t-145.5 -67.5v-48q58 0 94 -27.5t36 -74.5t-35.5 -76t-91.5 -29h-119v63h107q56 0 56 41.5t-56 41.5h-55v108q-91 7 -148 54.5
t-57 124.5h97q4 -47 37.5 -76t99.5 -29t105 34t39 79.5t-21 70t-54 36.5t-73.5 20.5t-81 20.5t-73.5 30.5t-54 55t-21 90.5q0 88 62.5 141.5t163 53.5t160 -46.5t68.5 -128.5h-101q-4 41 -38.5 70z" />
    <glyph glyph-name="scedilla" unicode="&#x15f;" horiz-adv-x="526" 
d="M337 458q-29 28 -80.5 28t-81 -24.5t-29.5 -63t33.5 -59.5t81 -30.5t95 -22t81 -47t33.5 -94.5t-47 -102t-125 -50v-46q58 0 94 -27.5t36 -74.5t-35.5 -76t-91.5 -29h-119v63h107q56 0 56 41.5t-56 41.5h-55v106q-79 8 -127 53t-52 119h94q2 -46 32.5 -73.5t84 -27.5
t84 23t30.5 58.5t-24 56.5t-60 29t-78.5 19t-78.5 23.5t-60 43.5t-24 78q0 69 57.5 116.5t149 47.5t143.5 -46.5t57 -127.5h-94q-2 46 -31 74z" />
    <glyph glyph-name="Scaron" unicode="&#x160;" horiz-adv-x="587" 
d="M149 508q0 -38 21 -63t54 -37t73.5 -21t81 -20.5t73.5 -29.5t54 -54t21 -89q0 -81 -62 -141t-167.5 -60t-171.5 48.5t-66 131.5h97q4 -47 37.5 -76t99.5 -29t105 34t39 79.5t-21 70t-54 36.5t-73.5 20.5t-81 20.5t-73.5 30.5t-54 55t-21 90.5q0 88 62.5 141.5t163 53.5
t160 -46.5t68.5 -128.5h-101q-4 41 -38.5 70t-93 29t-95.5 -29.5t-37 -86.5zM294 815l139 86v-77l-139 -83l-138 83v77z" />
    <glyph glyph-name="scaron" unicode="&#x161;" horiz-adv-x="526" 
d="M55 394q0 69 57.5 116.5t149 47.5t143.5 -46.5t57 -127.5h-94q-2 46 -31 74t-80.5 28t-81 -24.5t-29.5 -63t33.5 -59.5t81 -30.5t95 -22t81 -47t33.5 -98t-57.5 -107t-149.5 -43.5t-147.5 46t-60.5 127h94q2 -46 32.5 -73.5t84 -27.5t84 23t30.5 58.5t-24 56.5t-60 29
t-78.5 19t-78.5 23.5t-60 43.5t-24 78zM263 671l139 86v-77l-139 -83l-138 83v77z" />
    <glyph glyph-name="uni0162" unicode="&#x162;" horiz-adv-x="546" 
d="M501 620h-183v-620q57 -2 90.5 -29.5t33.5 -74.5t-35 -76t-92 -29h-149v63h139q54 0 54 42.5t-54 42.5h-78v681h-183v73h457v-73z" />
    <glyph glyph-name="uni0163" unicode="&#x163;" horiz-adv-x="355" 
d="M212 -53q59 0 94.5 -27.5t35.5 -74.5t-35.5 -76t-90.5 -29h-119v63h107q56 0 56 41.5t-56 41.5h-55v134q-54 34 -54 121v334h-71v74h71v136h92v-136h142v-74h-142v-334q0 -37 15 -52t53 -15h75v-74h-92q-18 0 -26 1v-54z" />
    <glyph glyph-name="Tcaron" unicode="&#x164;" horiz-adv-x="546" 
d="M44 620v73h457v-73h-183v-620h-91v620h-183zM273 815l139 86v-77l-139 -83l-138 83v77z" />
    <glyph glyph-name="tcaron" unicode="&#x165;" horiz-adv-x="355" 
d="M255 74h75v-74h-92q-143 0 -143 141v334h-71v74h71v136h92v-136h142v-74h-142v-334q0 -37 15 -52t53 -15zM129 -48h91q12 -52 12 -92q0 -113 -102 -113v44q48 0 48 52v23h-49v86z" />
    <glyph glyph-name="Umacron" unicode="&#x16a;" horiz-adv-x="673" 
d="M160 781v73h352v-73h-352zM74 243v450h92v-450q0 -86 45.5 -128.5t125.5 -42.5t126 42.5t46 128.5v450h91v-450q0 -122 -74.5 -186t-189 -64t-188.5 64t-74 186z" />
    <glyph glyph-name="umacron" unicode="&#x16b;" horiz-adv-x="628" 
d="M462 549h91v-549h-91v88q-55 -97 -179 -97q-91 0 -152 60.5t-61 171.5v326h90v-311q0 -82 40.5 -125.5t110.5 -43.5t110.5 43.5t40.5 125.5v311zM490 710v-73h-352v73h352z" />
    <glyph glyph-name="Uring" unicode="&#x16e;" horiz-adv-x="673" 
d="M74 243v450h92v-450q0 -86 45.5 -128.5t125.5 -42.5t126 42.5t46 128.5v450h91v-450q0 -122 -74.5 -186t-189 -64t-188.5 64t-74 186zM389 857q0 23 -15 37.5t-37.5 14.5t-37.5 -14.5t-15 -37.5t15 -38t37.5 -15t37.5 15t15 38zM232 856q0 47 30 76t74.5 29t74.5 -28.5
t30 -76t-30 -76t-74.5 -28.5t-74.5 28.5t-30 75.5z" />
    <glyph glyph-name="uring" unicode="&#x16f;" horiz-adv-x="628" 
d="M462 549h91v-549h-91v88q-55 -97 -179 -97q-91 0 -152 60.5t-61 171.5v326h90v-311q0 -82 40.5 -125.5t110.5 -43.5t110.5 43.5t40.5 125.5v311zM389 636.5q-30 -28.5 -74.5 -28.5t-74.5 28.5t-30 75.5t30 76t74.5 29t74.5 -28.5t30 -76t-30 -76zM352 750.5
q-15 14.5 -37.5 14.5t-37.5 -14.5t-15 -37.5t15 -38t37.5 -15t37.5 15t15 38t-15 37.5z" />
    <glyph glyph-name="Uhungarumlaut" unicode="&#x170;" horiz-adv-x="673" 
d="M289 899h84l-89 -154h-62zM452 899h83l-101 -154h-62zM74 243v450h92v-450q0 -86 45.5 -128.5t125.5 -42.5t126 42.5t46 128.5v450h91v-450q0 -122 -74.5 -186t-189 -64t-188.5 64t-74 186z" />
    <glyph glyph-name="uhungarumlaut" unicode="&#x171;" horiz-adv-x="628" 
d="M462 549h91v-549h-91v88q-55 -97 -179 -97q-91 0 -152 60.5t-61 171.5v326h90v-311q0 -82 40.5 -125.5t110.5 -43.5t110.5 43.5t40.5 125.5v311zM351 755l-89 -154h-62l67 154h84zM412 601h-62l80 154h83z" />
    <glyph glyph-name="Uogonek" unicode="&#x172;" horiz-adv-x="673" 
d="M74 243v450h92v-450q0 -86 45.5 -128.5t125.5 -42.5t126 42.5t46 128.5v450h91v-450q0 -103 -50 -160.5t-119 -76.5q-38 -11 -52 -20.5t-14 -27.5q0 -41 52 -41h83v-63h-91q-56 0 -91.5 28.5t-35.5 76.5q0 19 8 37q-97 13 -156.5 75.5t-59.5 171.5z" />
    <glyph glyph-name="uogonek" unicode="&#x173;" horiz-adv-x="628" 
d="M507 -139h79v-63h-91q-56 0 -91.5 28.5t-35.5 72t25.5 69.5t68.5 34v86q-55 -97 -179 -97q-91 0 -152 60.5t-61 171.5v326h90v-311q0 -82 40.5 -125.5t110.5 -43.5t110.5 43.5t40.5 125.5v311h91v-544h1v-61h-47q-56 0 -56 -41.5t56 -41.5z" />
    <glyph glyph-name="Ydieresis" unicode="&#x178;" horiz-adv-x="572" 
d="M332 0h-91v262l-226 431h100l171 -347l170 347h101l-225 -431v-262zM206 764q-22 0 -38 16t-16 38t16 38t38 16t38 -16t16 -38t-16 -38t-38 -16zM367 764q-23 0 -38.5 16t-15.5 38t15.5 38t38.5 16t38.5 -16t15.5 -38t-15.5 -38t-38.5 -16z" />
    <glyph glyph-name="Zacute" unicode="&#x179;" horiz-adv-x="542" 
d="M492 693v-73l-337 -548h337v-72h-442v72l338 548h-338v73h442zM156 801l213 126v-84l-213 -112v70z" />
    <glyph glyph-name="zacute" unicode="&#x17a;" horiz-adv-x="453" 
d="M410 549v-74l-265 -401h265v-74h-368v74l265 401h-265v74h368zM112 657l213 126v-84l-213 -112v70z" />
    <glyph glyph-name="Zdotaccent" unicode="&#x17b;" horiz-adv-x="542" 
d="M271 764q-23 0 -38.5 16t-15.5 38t15.5 38t38.5 16t38.5 -16t15.5 -38t-15.5 -38t-38.5 -16zM492 693v-73l-337 -548h337v-72h-442v72l338 548h-338v73h442z" />
    <glyph glyph-name="zdotaccent" unicode="&#x17c;" horiz-adv-x="453" 
d="M227 620q-23 0 -38.5 16t-15.5 38t15.5 38t38.5 16t38.5 -16t15.5 -38t-15.5 -38t-38.5 -16zM410 549v-74l-265 -401h265v-74h-368v74l265 401h-265v74h368z" />
    <glyph glyph-name="Zcaron" unicode="&#x17d;" horiz-adv-x="542" 
d="M492 693v-73l-337 -548h337v-72h-442v72l338 548h-338v73h442zM271 815l139 86v-77l-139 -83l-138 83v77z" />
    <glyph glyph-name="zcaron" unicode="&#x17e;" horiz-adv-x="453" 
d="M410 549v-74l-265 -401h265v-74h-368v74l265 401h-265v74h368zM227 671l139 86v-77l-139 -83l-138 83v77z" />
    <glyph glyph-name="florin" unicode="&#x192;" horiz-adv-x="330" 
d="M-22 -197h-23l7 74h16q27 0 41 15t18 51l56 532h-70l6 74h72l5 46q9 90 61 131t155 41l-8 -74q-59 0 -85.5 -22.5t-31.5 -75.5l-5 -46h115l-7 -74h-116l-56 -532q-7 -74 -44 -107t-106 -33z" />
    <glyph glyph-name="uni0218" unicode="&#x218;" horiz-adv-x="587" 
d="M149 508q0 -38 21 -63t54 -37t73.5 -21t81 -20.5t73.5 -29.5t54 -54t21 -89q0 -81 -62 -141t-167.5 -60t-171.5 48.5t-66 131.5h97q4 -47 37.5 -76t99.5 -29t105 34t39 79.5t-21 70t-54 36.5t-73.5 20.5t-81 20.5t-73.5 30.5t-54 55t-21 90.5q0 88 62.5 141.5t163 53.5
t160 -46.5t68.5 -128.5h-101q-4 41 -38.5 70t-93 29t-95.5 -29.5t-37 -86.5zM245 -48h91q12 -53 12 -92q0 -113 -102 -113v44q48 0 48 52v23h-49v86z" />
    <glyph glyph-name="uni0219" unicode="&#x219;" horiz-adv-x="526" 
d="M55 394q0 69 57.5 116.5t149 47.5t143.5 -46.5t57 -127.5h-94q-2 46 -31 74t-80.5 28t-81 -24.5t-29.5 -63t33.5 -59.5t81 -30.5t95 -22t81 -47t33.5 -98t-57.5 -107t-149.5 -43.5t-147.5 46t-60.5 127h94q2 -46 32.5 -73.5t84 -27.5t84 23t30.5 58.5t-24 56.5t-60 29
t-78.5 19t-78.5 23.5t-60 43.5t-24 78zM214 -48h91q12 -53 12 -92q0 -113 -102 -113v44q48 0 48 52v23h-49v86z" />
    <glyph glyph-name="uni021A" unicode="&#x21a;" horiz-adv-x="546" 
d="M44 620v73h457v-73h-183v-620h-91v620h-183zM224 -48h91q12 -53 12 -92q0 -113 -102 -113v44q48 0 48 52v23h-49v86z" />
    <glyph glyph-name="uni021B" unicode="&#x21b;" horiz-adv-x="355" 
d="M255 74h75v-74h-92q-143 0 -143 141v334h-71v74h71v136h92v-136h142v-74h-142v-334q0 -37 15 -52t53 -15zM129 -48h91q12 -52 12 -92q0 -113 -102 -113v44q48 0 48 52v23h-49v86z" />
    <glyph glyph-name="uni02BC" unicode="&#x2bc;" horiz-adv-x="152" 
d="M25 783h91q12 -53 12 -92q0 -113 -102 -113v44q48 0 48 52v23h-49v86z" />
    <glyph glyph-name="circumflex" unicode="&#x2c6;" horiz-adv-x="297" 
d="M287 674v-77l-139 86l-138 -86v77l138 83z" />
    <glyph glyph-name="caron" unicode="&#x2c7;" horiz-adv-x="297" 
d="M148 671l139 86v-77l-139 -83l-138 83v77z" />
    <glyph glyph-name="uni02C9" unicode="&#x2c9;" horiz-adv-x="372" 
d="M10 637v73h352v-73h-352z" />
    <glyph glyph-name="breve" unicode="&#x2d8;" horiz-adv-x="305" 
d="M295 739q0 -57 -38 -93t-105 -36t-104.5 36.5t-37.5 93.5v18h57q0 -37 19 -55.5t66 -18.5t66 18.5t19 55.5h58v-19z" />
    <glyph glyph-name="dotaccent" unicode="&#x2d9;" horiz-adv-x="128" 
d="M64 620q-22 0 -38 16t-16 38t16 38t38 16t38 -16t16 -38t-16 -38t-38 -16z" />
    <glyph glyph-name="ring" unicode="&#x2da;" horiz-adv-x="229" 
d="M167 713q0 23 -15 37.5t-37.5 14.5t-37.5 -14.5t-15 -37.5t15 -38t37.5 -15t37.5 15t15 38zM10 712q0 47 30 76t74.5 29t74.5 -28.5t30 -76t-30 -76t-74.5 -28.5t-74.5 28.5t-30 75.5z" />
    <glyph glyph-name="ogonek" unicode="&#x2db;" horiz-adv-x="254" 
d="M45.5 -173.5q-35.5 28.5 -35.5 76t35.5 75t94.5 27.5h56v-61h-47q-56 0 -56 -41.5t56 -41.5h79v-63h-91q-56 0 -91.5 28.5z" />
    <glyph glyph-name="tilde" unicode="&#x2dc;" horiz-adv-x="334" 
d="M45 684q28 27 62.5 27t66.5 -22t50 -22q39 0 43 42h57q-7 -50 -35 -77.5t-62.5 -27.5t-66.5 22.5t-50 22.5t-29.5 -11t-13.5 -31h-57q7 50 35 77z" />
    <glyph glyph-name="hungarumlaut" unicode="&#x2dd;" horiz-adv-x="333" 
d="M77 755h84l-89 -154h-62zM240 755h83l-101 -154h-62z" />
    <glyph glyph-name="pi" unicode="&#x3c0;" horiz-adv-x="706" 
d="M36 476v73h627v-73h-79v-476h-91v476h-288v-476h-91v476h-78z" />
    <glyph glyph-name="uni0901" unicode="&#x901;" horiz-adv-x="0" 
d="M-139 971q-22 0 -37.5 15.5t-15.5 37.5t15.5 37t37.5 15t37.5 -15t15.5 -37t-15.5 -37.5t-37.5 -15.5zM53 995q0 -79 -47.5 -128.5t-144.5 -49.5t-144.5 50t-47.5 128h75q0 -46 29.5 -78t87.5 -32t87.5 32t29.5 78h75z" />
    <glyph glyph-name="uni0902" unicode="&#x902;" horiz-adv-x="0" 
d="M-96 857.5q-17 -17.5 -41.5 -17.5t-41.5 17.5t-17 41.5t17 41t41.5 17t41.5 -17t17 -41t-17 -41.5z" />
    <glyph glyph-name="uni0903" unicode="&#x903;" horiz-adv-x="166" 
d="M83 143q-23 0 -39 16.5t-16 38.5t16 38.5t39 16.5t39 -16.5t16 -38.5t-16 -38.5t-39 -16.5zM83 444q-23 0 -39 16t-16 38.5t16 38.5t39 16t39 -16t16 -38.5t-16 -38.5t-39 -16z" />
    <glyph glyph-name="uni0905" unicode="&#x905;" horiz-adv-x="831" 
d="M650 740h217v-77h-131v-663h-86v326h-152q13 -34 13 -69q0 -93 -58 -148t-153 -55t-154.5 55t-59.5 148h81q0 -59 37 -94.5t97 -35.5t95 35.5t35 94.5t-36.5 89t-102.5 30h-37v77h32q57 0 94.5 28.5t37.5 81t-33.5 83.5t-87.5 31t-88.5 -31.5t-35.5 -82.5h-80
q0 84 57.5 135.5t146 51.5t145.5 -50.5t57 -133.5q0 -111 -105 -146v-5q20 -5 40 -17h215v342z" />
    <glyph glyph-name="uni0906" unicode="&#x906;" horiz-adv-x="1106" 
d="M1142 740v-77h-130v-663h-86v663h-190v-663h-86v326h-152q13 -34 13 -69q0 -93 -58 -148t-153 -55t-154.5 55t-59.5 148h81q0 -59 37 -94.5t97 -35.5t95 35.5t35 94.5t-36.5 89t-102.5 30h-37v77h32q57 0 94.5 28.5t37.5 81t-33.5 83.5t-87.5 31t-88.5 -31.5t-35.5 -82.5
h-80q0 84 57.5 135.5t146 51.5t145.5 -50.5t57 -133.5q0 -111 -105 -146v-5q20 -5 40 -17h215v342h492z" />
    <glyph glyph-name="uni0907" unicode="&#x907;" horiz-adv-x="595" 
d="M488 482h-162q-61 0 -96 -16.5t-35 -64.5t32.5 -64.5t82.5 -16.5t79.5 -3t60.5 -13t52 -28q46 -39 46 -116t-51.5 -124.5t-142.5 -47.5q-113 0 -163 68v-133h-84v274h84q8 -135 146 -135q59 0 93 24.5t34 68.5t-21.5 64t-47.5 24.5t-68 4.5q-101 0 -159.5 34t-58.5 123
q0 56 31 91.5t74.5 48t100.5 12.5h87v106h-438v77h667v-77h-143v-181z" />
    <glyph glyph-name="uni0908" unicode="&#x908;" horiz-adv-x="595" 
d="M-36 740h442v97q0 205 167 205q76 0 117 -46t41 -124h-74q-2 99 -85 99q-47 0 -67.5 -33t-20.5 -101v-97h147v-77h-143v-181h-162q-61 0 -96 -16.5t-35 -64.5t32.5 -64.5t82.5 -16.5t79.5 -3t60.5 -13t52 -28q46 -39 46 -116t-51.5 -124.5t-142.5 -47.5q-113 0 -163 68
v-133h-84v274h84q8 -135 146 -135q59 0 93 24.5t34 68.5t-21.5 64t-47.5 24.5t-68 4.5q-101 0 -159.5 34t-58.5 123q0 56 31 91.5t74.5 48t100.5 12.5h87v106h-438v77z" />
    <glyph glyph-name="uni0909" unicode="&#x909;" horiz-adv-x="581" 
d="M484 663v-32q0 -89 -19 -142t-77 -82v-5q57 -19 91.5 -66t34.5 -114q0 -100 -57.5 -157t-160.5 -57t-166.5 62t-63.5 164h80q0 -64 44 -108t107 -44t100.5 38.5t37.5 104.5t-46.5 102.5t-116.5 36.5h-35v79h33q75 0 104 48t29 138v34h-440v77h654v-77h-133z" />
    <glyph glyph-name="uni090A" unicode="&#x90a;" horiz-adv-x="855" 
d="M483 663v-32q0 -89 -19 -142t-77 -82v-6h191q230 0 230 -189q0 -211 -256 -185v69q86 -7 129 17t43 94t-36.5 95t-109.5 25h-94q29 -47 29 -105q0 -100 -57.5 -157t-160 -57t-166 62.5t-63.5 163.5h79q0 -64 43.5 -108t107.5 -44t101 38t37 104.5t-46.5 103t-115.5 36.5
h-36v79h34q74 0 103.5 48.5t29.5 137.5v34h-439v77h927v-77h-408z" />
    <glyph glyph-name="uni090B" unicode="&#x90b;" horiz-adv-x="980" 
d="M113 5l366 356q-13 58 -54 92t-112 34t-117.5 -49.5t-46.5 -132.5h-85q0 116 66.5 187.5t181.5 71.5t173 -88v187h-521v77h1052v-77h-445v-193h179q37 0 48 14.5t11 54.5v35h82v-360h-29q-54 -1 -82 -28t-28 -77t33.5 -75.5t75.5 -25.5t72 9v-70q-27 -10 -67 -10
q-85 0 -140 44t-55 129q0 67 36.5 110.5t101.5 55.5v128q-24 -7 -59 -7h-179v-397h-86v269l-262 -269h-110v5z" />
    <glyph glyph-name="uni090C" unicode="&#x90c;" horiz-adv-x="907" 
d="M810 -67q-85 0 -139 43.5t-54 128.5q0 66 35.5 110t99.5 54q2 43 -6 77t-37.5 61t-79.5 27q-137 0 -128 -208h-82q9 208 -128 208q-123 0 -123 -162q0 -88 47.5 -135t139.5 -40v-78q-125 -11 -199 58.5t-74 188.5t51 182.5t153 63.5q65 0 110.5 -31.5t63.5 -89.5
q14 48 48.5 77.5t84.5 36.5v158h-629v77h979v-77h-265v-155q74 -13 116 -71t42 -155q0 -34 -6 -73h-23q-54 0 -82 -27t-28 -77.5t33.5 -76t75.5 -25.5t73 9v-71q-32 -8 -69 -8z" />
    <glyph glyph-name="uni090D" unicode="&#x90d;" horiz-adv-x="629" 
d="M464 542v121h-296v-400q0 -167 153 -167q148 0 148 147h85q0 -105 -61.5 -164.5t-177 -59.5t-175 67.5t-59.5 184.5v392h-146v77h733v-77h-118v-122q0 -118 -49 -166.5t-161 -47.5v79q74 2 99 27.5t25 108.5zM373 1005h76q0 -71 -34 -115.5t-103 -44.5t-103 44.5
t-34 115.5h76q0 -142 61 -142t61 142z" />
    <glyph glyph-name="uni090F" unicode="&#x90f;" horiz-adv-x="661" 
d="M493 542v121h-296v-400q0 -167 153 -167q148 0 148 147h85q0 -105 -61.5 -164.5t-177 -59.5t-175 67.5t-59.5 184.5v392h-146v77h733v-77h-118v-122q0 -118 -49 -166.5t-161 -47.5v79q74 2 99 27.5t25 108.5z" />
    <glyph glyph-name="uni0910" unicode="&#x910;" horiz-adv-x="661" 
d="M493 542v121h-296v-400q0 -167 153 -167q148 0 148 147h85q0 -105 -61.5 -164.5t-177 -59.5t-175 67.5t-59.5 184.5v392h-146v77h507q-30 43 -45.5 65t-36.5 44t-33.5 30t-36 15.5t-45 8.5t-58.5 1h-36v74h31q129 0 179 -34q54 -37 105 -107q28 -39 63 -97h139v-77h-118
v-122q0 -118 -49 -166.5t-161 -47.5v79q74 2 99 27.5t25 108.5z" />
    <glyph glyph-name="uni0911" unicode="&#x911;" horiz-adv-x="1111" 
d="M1147 740v-77h-130v-663h-86v663h-190v-663h-86v326h-152q13 -34 13 -69q0 -93 -58 -148t-153 -55t-154.5 55t-59.5 148h81q0 -59 37 -94.5t97 -35.5t95 35.5t35 94.5t-36.5 89t-102.5 30h-37v77h32q57 0 94.5 28.5t37.5 81t-33.5 83.5t-87.5 31t-88.5 -31.5t-35.5 -82.5
h-80q0 84 57.5 135.5t146 51.5t145.5 -50.5t57 -133.5q0 -111 -105 -146v-5q20 -5 40 -17h215v342h492zM960 995h76q0 -80 -43.5 -129t-140.5 -49t-140.5 49t-43.5 129h76q0 -47 25.5 -78t83 -31t82.5 30.5t25 78.5z" />
    <glyph glyph-name="uni0913" unicode="&#x913;" horiz-adv-x="1111" 
d="M1147 740v-77h-130v-663h-86v663h-190v-663h-86v326h-152q13 -34 13 -69q0 -93 -58 -148t-153 -55t-154.5 55t-59.5 148h81q0 -59 37 -94.5t97 -35.5t95 35.5t35 94.5t-36.5 89t-102.5 30h-37v77h32q57 0 94.5 28.5t37.5 81t-33.5 83.5t-87.5 31t-88.5 -31.5t-35.5 -82.5
h-80q0 84 57.5 135.5t146 51.5t145.5 -50.5t57 -133.5q0 -111 -105 -146v-5q20 -5 40 -17h215v342h277q-30 43 -45.5 65t-36.5 44t-33.5 30t-36 15.5t-45 8.5t-58.5 1h-36v74h31q129 0 178 -34q55 -37 106 -107q28 -39 63 -97h128z" />
    <glyph glyph-name="uni0914" unicode="&#x914;" horiz-adv-x="1159" 
d="M1195 740v-77h-130v-663h-86v663h-190v-663h-86v326h-152q13 -34 13 -69q0 -93 -58 -148t-153 -55t-154.5 55t-59.5 148h81q0 -59 37 -94.5t97 -35.5t95 35.5t35 94.5t-36.5 89t-102.5 30h-37v77h32q57 0 94.5 28.5t37.5 81t-33.5 83.5t-87.5 31t-88.5 -31.5t-35.5 -82.5
h-80q0 84 57.5 135.5t146 51.5t145.5 -50.5t57 -133.5q0 -111 -105 -146v-5q20 -5 40 -17h215v342h271q-47 48 -90.5 58.5t-140.5 10.5h-36v69h31q63 0 92 -2q71 -7 139 -71q-52 80 -97.5 104t-133.5 24h-37v69h32q51 0 81.5 -4.5t63 -18t59.5 -43.5q55 -60 127 -196h131z
" />
    <glyph glyph-name="uni0915" unicode="&#x915;" horiz-adv-x="1011" 
d="M1047 663h-487v-179q50 81 155.5 81t165 -65t59.5 -173t-78.5 -169.5t-199.5 -47.5l-1 74q87 -8 140 30.5t53 114.5t-39 117.5t-111 41.5t-108 -45.5t-36 -127.5v-315h-84v183q-54 -81 -161 -81t-168.5 64.5t-61.5 166t61 166.5t168.5 65t161.5 -82v181h-512v77h1083v-77
zM211.5 218.5q40.5 -40.5 113.5 -40.5t112 41.5t39 113.5t-40.5 113t-112.5 41t-112 -40.5t-40 -114t40.5 -114z" />
    <glyph glyph-name="uni0916" unicode="&#x916;" horiz-adv-x="916" 
d="M-36 740h988v-77h-131v-663h-84v203q-48 -64 -147 -64q-11 0 -31 2q-22 -69 -84 -106t-148 -37q-113 0 -179 64t-66 176v169h34q73 0 108 15q20 9 28 30q15 43 15 132v79h-303v77zM168 236q0 -161 159 -161q61 0 100.5 24.5t53.5 69.5q-90 56 -90 175q0 89 55.5 146.5
t150.5 57.5t140 -60v175h-385v-80q0 -140 -37.5 -189.5t-146.5 -52.5v-105zM510.5 248.5q36.5 -35.5 96 -35.5t95 35.5t35.5 95.5t-35 95t-95 35t-96.5 -35t-36.5 -95t36.5 -95.5z" />
    <glyph glyph-name="uni0917" unicode="&#x917;" horiz-adv-x="714" 
d="M-36 740h786v-77h-131v-663h-86v663h-202v-242q0 -100 -34.5 -149.5t-117.5 -49.5q-160 0 -154 196h85q0 -59 13 -89t57 -30q46 0 58 37q10 28 10 84v243h-284v77z" />
    <glyph glyph-name="uni0918" unicode="&#x918;" horiz-adv-x="695" 
d="M731 740v-77h-131v-663h-86v202q-64 -95 -213 -95q-93 0 -159.5 47.5t-66.5 134.5q0 54 28 92.5t74 57.5v6q-50 23 -67.5 66.5t-17.5 122.5v29h-128v77h767zM514 356v307h-335v-29q0 -87 26 -121.5t104 -34.5h36v-75h-36q-66 0 -107 -28t-41 -83.5t44.5 -82t119.5 -26.5
t132 47t57 126z" />
    <glyph glyph-name="uni0919" unicode="&#x919;" horiz-adv-x="660" 
d="M-36 740h732v-77h-226v-181h-162q-61 0 -96 -16.5t-35 -64.5t32.5 -64.5t82.5 -16.5t79.5 -3t60.5 -13.5t52 -27.5q47 -39 47 -116t-57 -124.5t-160.5 -47.5t-169.5 55t-68 154h85q8 -135 157 -135q60 0 94 24.5t34 74.5q0 58 -44 74q-34 13 -87.5 13t-90 6.5t-68.5 23.5
q-66 34 -66 127q0 56 31 91.5t75 48t101 12.5h87v106h-420v77zM533.5 418.5q16.5 16.5 40 16.5t40 -16.5t16.5 -40t-16.5 -40.5t-40 -17t-40 17t-16.5 40.5t16.5 40z" />
    <glyph glyph-name="uni091A" unicode="&#x91a;" horiz-adv-x="727" 
d="M-36 740h799v-77h-131v-663h-86v188q-54 -89 -179 -89q-95 0 -160.5 57t-65.5 152.5t75 146.5h-167v72h364v-72h-29q-72 0 -115.5 -38t-43.5 -103.5t43.5 -102t114 -36.5t117 50.5t46.5 124.5v313h-582v77z" />
    <glyph glyph-name="uni091B" unicode="&#x91b;" horiz-adv-x="820" 
d="M856 663h-215v-103q61 -18 94.5 -74.5t33.5 -141.5q0 -144 -96 -228t-263 -84q-134 0 -228 48q-48 25 -75 68t-27 101t30.5 100t83.5 62v6q-57 19 -76 67t-19 141v38h-135v77h892v-77zM557 663h-372v-43q0 -96 26 -133t111 -37h13v-75h-14q-71 0 -113.5 -31.5t-42.5 -88
t37 -90t89 -45.5t118 -12q131 0 207 60t76 182q0 74 -28.5 109.5t-70 35.5t-63 -13.5t-36 -58t-13.5 -123.5h-77q-4 127 34.5 191t118.5 74v98z" />
    <glyph glyph-name="uni091C" unicode="&#x91c;" horiz-adv-x="827" 
d="M-36 740h899v-77h-131v-663h-86v440h-181v-74q0 -117 -37 -185q-41 -77 -160 -77q-122 0 -164 79q-36 69 -36 183v148h86v-125q0 -137 26 -171q29 -37 88 -37q60 0 87 37q21 30 24 102q1 24 1 69v125h266v149h-682v77z" />
    <glyph glyph-name="uni091D" unicode="&#x91d;" horiz-adv-x="831" 
d="M867 740v-77h-130v-663h-86v277h-175q19 -10 32.5 -33.5t13.5 -52.5q0 -69 -48 -115.5t-137 -46.5q-50 0 -91 19.5t-63 50.5v-135h-83v261h83q3 -56 41 -89.5t100 -33.5q115 0 115 94q0 56 -37 69q-31 11 -78 11t-74.5 2.5t-57.5 11.5t-48 24q-43 36 -43 109q0 87 65 118
q54 26 142 26h87v96h-431v77h903zM651 346v317h-170v-171h-162q-103 0 -123 -31q-9 -15 -9 -40q0 -46 28 -60.5t84 -14.5h352z" />
    <glyph glyph-name="uni091E" unicode="&#x91e;" horiz-adv-x="815" 
d="M-36 740h886v-77h-130v-663h-86v305h-117q-9 -91 -67.5 -147.5t-158 -56.5t-157 49.5t-70.5 120.5h86q10 -39 45.5 -66t101 -27t102 43t36.5 119t-36.5 119.5t-102 43.5t-101 -27t-45.5 -66h-86q13 71 70 120t156.5 49t157 -54.5t69.5 -143.5h117v282h-670v77z" />
    <glyph glyph-name="uni091F" unicode="&#x91f;" horiz-adv-x="660" 
d="M447 485h-68q-102 -1 -161.5 -47t-59.5 -133.5t51 -136.5t135 -49t132 49t48 134h85q0 -119 -72.5 -189.5t-192.5 -70.5t-195.5 71t-75.5 190t79.5 187t209.5 71v102h-398v77h732v-77h-249v-178z" />
    <glyph glyph-name="uni0920" unicode="&#x920;" horiz-adv-x="669" 
d="M343 485q-82 0 -132.5 -50t-50.5 -131t50.5 -131t132.5 -50t132.5 50t50.5 131t-50.5 131t-132.5 50zM549 476.5q63 -68.5 63 -177.5t-76 -180t-193 -71t-192.5 71t-75.5 179.5t62.5 177t162.5 81.5v106h-336v77h741v-77h-319v-106q100 -12 163 -80.5z" />
    <glyph glyph-name="uni0921" unicode="&#x921;" horiz-adv-x="582" 
d="M470 482h-162q-61 0 -96 -16.5t-35 -64.5t32.5 -64.5t82.5 -16.5t79.5 -3t60.5 -13.5t52 -27.5q47 -39 47 -116t-57 -124.5t-160.5 -47.5t-169.5 55t-68 154h85q8 -135 157 -135q60 0 94 24.5t34 74.5q0 58 -44 74q-34 13 -87.5 13t-90 6.5t-68.5 23.5q-66 34 -66 127
q0 56 31 91.5t75 48t101 12.5h87v106h-420v77h654v-77h-148v-181z" />
    <glyph glyph-name="uni0922" unicode="&#x922;" horiz-adv-x="635" 
d="M475 495h-73q-113 0 -179 -53.5t-66 -153.5t59.5 -152t156.5 -52q69 0 105.5 31.5t36.5 79.5q0 102 -90 102q-88 0 -88 -104h-79q-1 79 41 127.5t122 48.5t128.5 -45t48.5 -128.5t-63 -136t-164 -52.5q-130 0 -214.5 74.5t-84.5 208.5t88.5 206t228.5 74v93h-425v77h707
v-77h-196v-168z" />
    <glyph glyph-name="uni0923" unicode="&#x923;" horiz-adv-x="859" 
d="M-36 740h931v-77h-131v-663h-86v663h-177v-255q0 -240 -201.5 -240t-201.5 240v255h-134v77zM416 406v257h-233v-257q0 -80 25 -120.5t92 -40.5t91.5 40.5t24.5 120.5z" />
    <glyph glyph-name="uni0924" unicode="&#x924;" horiz-adv-x="673" 
d="M341 71v-73h-13q-132 0 -198.5 66.5t-66.5 189t77 183t209 60.5h144v166h-529v77h745v-77h-130v-663h-86v421h-144q-92 0 -145.5 -41.5t-53.5 -130.5t45 -133.5t146 -44.5z" />
    <glyph glyph-name="uni0925" unicode="&#x925;" horiz-adv-x="759" 
d="M795 663h-131v-663h-86v198q-23 -42 -76.5 -72.5t-133.5 -30.5q-146 0 -219 99.5t-53 255.5q50 -2 106.5 -2t98 8.5t67.5 36t26 76.5t-26.5 76.5t-76 27.5t-76 -33.5t-24.5 -90.5h-82q-3 90 48 145t135 55t135.5 -50t51.5 -133q0 -114 -89 -153q-79 -35 -207 -33
q-5 -94 45 -151.5t151 -57.5q82 0 139 53.5t60 137.5v378h217v-77z" />
    <glyph glyph-name="uni0926" unicode="&#x926;" horiz-adv-x="596" 
d="M522 0h-86v146q-39 -52 -140 -52t-167.5 61.5t-66.5 175.5t79.5 172t216.5 58h40v102h-434v77h668v-77h-148v-180h-114q-165 0 -205 -81q-16 -33 -16 -81q0 -75 43.5 -113t111.5 -38q140 0 140 124h78v-294z" />
    <glyph glyph-name="uni0927" unicode="&#x927;" horiz-adv-x="719" 
d="M755 740v-77h-130v-663h-86v195q-31 -44 -87.5 -68t-137.5 -24t-147.5 47.5t-66.5 131.5q0 104 105 143v6q-47 18 -77.5 58.5t-30.5 104.5t47.5 110t126 46t123 -51t39.5 -133h-76q2 49 -20 78t-65.5 29t-68 -24t-24.5 -66q0 -61 43 -90.5t113 -29.5h51v-74h-46
q-68 0 -111 -24.5t-43 -78.5t45.5 -80.5t119 -26.5t131 48.5t57.5 127.5v385h216z" />
    <glyph glyph-name="uni0928" unicode="&#x928;" horiz-adv-x="782" 
d="M347.5 379q-31.5 32 -84.5 32t-87.5 -31t-34.5 -87.5t35.5 -86.5t86 -30t83.5 31t33 85.5t-31.5 86.5zM602 0v413h-207q63 -38 63 -124.5t-53 -137.5t-141 -51t-146.5 53t-58.5 142.5t59 140.5t169 51h315v176h-638v77h854v-77h-130v-663h-86z" />
    <glyph glyph-name="uni092A" unicode="&#x92a;" horiz-adv-x="654" 
d="M-36 740h725v-77h-130v-663h-86v284q-50 -84 -169 -84q-103 0 -158.5 69.5t-55.5 180.5v213h-126v77zM176 663v-211q0 -175 149 -175q66 0 107 46t41 117v223h-297z" />
    <glyph glyph-name="uni092B" unicode="&#x92b;" horiz-adv-x="990" 
d="M1026 663h-482v-206q54 83 170 83q97 0 156 -61.5t59 -164t-72.5 -162t-189.5 -50.5l-1 74q80 -7 129 31t49 109t-38 109t-109 38t-112 -47.5t-41 -122.5v-293h-86v312q-49 -79 -153 -79t-156.5 68.5t-52.5 180.5v181h-132v77h1062v-77zM182 663v-181q0 -85 32 -128.5
t102 -43.5t106 49t36 122v182h-276z" />
    <glyph glyph-name="uni092C" unicode="&#x92c;" horiz-adv-x="672" 
d="M-36 740h744v-77h-131v-663h-84v177q-60 -91 -186 -91q-108 0 -179.5 68.5t-71.5 176.5t71.5 177t179.5 69q125 0 186 -93v179h-529v77zM495 331q0 76 -48.5 124.5t-123.5 48.5t-121 -36l276 -215q17 36 17 78zM138 331q0 -80 50.5 -126.5t127 -46.5t126.5 45l-281 220
q-23 -40 -23 -92z" />
    <glyph glyph-name="uni092D" unicode="&#x92d;" horiz-adv-x="802" 
d="M838 740v-77h-130v-663h-86v378h-162v-59q0 -220 -181 -220q-80 0 -134 50t-54 128q0 175 233 175h53v83q0 64 -19 99t-69 35t-68.5 -35.5t-18.5 -102.5h-84q-2 215 171 215q171 0 171 -212v-82h162v288h216zM377 318v60h-58q-70 0 -107.5 -23t-37.5 -74t29 -78.5
t80 -27.5t72.5 35.5t21.5 107.5z" />
    <glyph glyph-name="uni092E" unicode="&#x92e;" horiz-adv-x="783" 
d="M819 740v-77h-130v-663h-86v380h-183v-59q0 -220 -181 -220q-80 0 -134 50t-54 128q0 175 234 175h52v209h-373v77h855zM337 320v60h-58q-70 0 -107.5 -22.5t-37.5 -73.5t29.5 -79t80.5 -28t72 35.5t21 107.5zM603 454v209h-183v-209h183z" />
    <glyph glyph-name="uni092F" unicode="&#x92f;" horiz-adv-x="726" 
d="M-36 740h798v-77h-130v-663h-86v216q-27 -50 -79 -80t-124 -30q-139 0 -210.5 92t-63.5 249q97 0 133 19q22 12 33.5 23t16.5 37q8 35 8 106v31h-296v77zM345 663v-33q0 -63 -6 -102t-25 -72.5t-56.5 -49.5t-98.5 -20q-1 -92 50.5 -147.5t142.5 -55.5t142.5 60.5
t51.5 157.5v262h-201z" />
    <glyph glyph-name="uni0930" unicode="&#x930;" horiz-adv-x="524" 
d="M447 663v-50q0 -89 -11 -140t-43.5 -82.5t-83.5 -42.5t-140 -11v-124q0 -138 109.5 -138t109.5 135h86q0 -98 -51 -155t-145 -57t-145 58t-51 156v198h50t72.5 0.5t68 7.5t49 17t23.5 36t14.5 57.5t1.5 87.5v47h-397v77h596v-77h-113z" />
    <glyph glyph-name="uni0931" unicode="&#x931;" horiz-adv-x="524" 
d="M447 663v-50q0 -89 -11 -140t-43.5 -82.5t-83.5 -42.5t-140 -11v-124q0 -138 109.5 -138t109.5 135h86q0 -98 -51 -155t-145 -57t-145 58t-51 156v198h50t72.5 0.5t68 7.5t49 17t23.5 36t14.5 57.5t1.5 87.5v47h-397v77h596v-77h-113zM51 18q24 0 41.5 -17.5t17.5 -41.5
t-17.5 -41.5t-41.5 -17.5t-41 17.5t-17 41.5t17 41.5t41 17.5z" />
    <glyph glyph-name="uni0932" unicode="&#x932;" horiz-adv-x="907" 
d="M291 434q-123 0 -123 -162q0 -88 47.5 -135t139.5 -40v-78q-125 -11 -199 58.5t-74 188.5t51 182.5t153 63.5q65 0 110.5 -31.5t63.5 -89.5q14 48 48.5 77.5t84.5 36.5v158h-629v77h979v-77h-265v-155q79 -14 119 -76t40 -161q0 -124 -74 -193.5t-199 -58.5v78
q92 -7 139.5 40t47.5 135q0 162 -122 162q-137 0 -128 -208h-82q9 208 -128 208z" />
    <glyph glyph-name="uni0933" unicode="&#x933;" horiz-adv-x="939" 
d="M975 663h-277v-147q93 -8 152 -70.5t59 -160.5t-66 -162t-167 -64q-65 0 -118 31.5t-79 88.5q-26 -58 -78.5 -89t-116.5 -31q-102 0 -168 64t-66 165t66.5 165t167.5 64q65 0 117 -31t78 -90q38 88 134 113v154h-649v77h1011v-77zM288 137q68 0 108 42t40 109t-40 109
t-108 42t-110.5 -41.5t-42.5 -109t42.5 -109.5t110.5 -42zM824 288q0 68 -42.5 109.5t-109.5 41.5t-108 -42t-41 -109t41 -109t109 -42t109.5 41.5t41.5 109.5z" />
    <glyph glyph-name="uni0935" unicode="&#x935;" horiz-adv-x="648" 
d="M-36 740h720v-77h-131v-663h-84v182q-58 -88 -183 -88q-101 0 -166.5 67t-65.5 170.5t65.5 170.5t166.5 67q125 0 183 -88v182h-505v77zM469 331v1q0 74 -45 117.5t-120 43.5t-120 -43.5t-45 -118t45 -118t120 -43.5t120 43.5t45 117.5z" />
    <glyph glyph-name="uni0936" unicode="&#x936;" horiz-adv-x="812" 
d="M848 663h-131v-663h-86v740h217v-77zM195 201q0 -61 30.5 -93.5t90 -32.5t86 37.5t27.5 109.5h86q-4 -224 -202 -224q-94 0 -149.5 53.5t-55.5 150.5v202q31 -1 92 -1t90 2.5t60 11t50 23.5q42 36 42 101.5t-32 98.5t-94 33t-93 -44t-29 -114h-85q-5 100 50.5 167t155 67
t156.5 -56t57 -144q0 -119 -71.5 -168.5t-199.5 -51.5q-20 0 -62 2v-130z" />
    <glyph glyph-name="uni0937" unicode="&#x937;" horiz-adv-x="655" 
d="M-36 740h727v-77h-131v-663h-86v279q-50 -83 -170 -83q-103 0 -158.5 68t-55.5 178v221h-126v77zM474 663h-298v-5l297 -236q1 4 1 13v228zM176 448q0 -176 150 -176q91 0 131 84l-281 224v-132z" />
    <glyph glyph-name="uni0938" unicode="&#x938;" horiz-adv-x="799" 
d="M83 420l48 -1q35 0 64 3l1 2h18q77 11 100 57t23 158v24h-373v77h870v-77h-130v-663h-86v352h-448v-141q0 -136 107 -136q59 0 83 38.5t24 113.5h85q2 -108 -46 -168.5t-144 -60.5t-146 58t-50 156v208zM618 424v239h-195v-25q0 -157 -50 -214h245z" />
    <glyph glyph-name="uni0939" unicode="&#x939;" horiz-adv-x="610" 
d="M484 483h-174q-53 0 -85.5 -19.5t-32.5 -59.5q0 -54 63 -77q28 7 65 7q93 0 154.5 -47t66.5 -117h-85q-21 88 -136 88q-66 0 -105 -37.5t-39 -98.5t39.5 -99.5t104.5 -38.5q115 0 136 88h85q-5 -70 -66.5 -117t-159.5 -47t-161.5 59t-63.5 155q0 111 84 170
q-69 42 -69 115.5t52.5 112t144.5 38.5h96v105h-434v77h682v-77h-162v-180z" />
    <glyph glyph-name="uni093C" unicode="&#x93c;" horiz-adv-x="0" 
d="M-356 -154q-24 0 -41 17.5t-17 41.5t17 41.5t41 17.5t41.5 -17.5t17.5 -41.5t-17.5 -41.5t-41.5 -17.5z" />
    <glyph glyph-name="uni093D" unicode="&#x93d;" horiz-adv-x="601" 
d="M313 582q-30 -13 -30 -45t30.5 -79.5t67 -94t67 -104t30.5 -105t-38.5 -70.5t-133.5 -23h-253v77h244q50 0 71 7t21 32.5t-30.5 73t-66.5 94.5t-66.5 104.5t-30.5 100.5q0 122 167 122h185v-77h-145q-59 0 -89 -13z" />
    <glyph glyph-name="uni093E" unicode="&#x93e;" 
d="M311 663h-130v-663h-86v663h-131v77h347v-77z" />
    <glyph glyph-name="uni093F" unicode="&#x93f;" 
d="M97 740v16q0 58 22.5 102.5t58 70.5t87.5 42t103.5 21.5t113.5 5.5t113.5 -5.5t103.5 -21.5t87.5 -42t58 -70.5t22.5 -102.5v-54h-85v44q0 47 -18 80.5t-45 51.5t-70 28.5t-79.5 13t-87.5 2.5t-87.5 -2.5t-79.5 -13t-70 -28.5t-45 -51.5t-18 -80.5v-6h129v-77h-130v-663
h-86v663h-131v77h133z" />
    <glyph glyph-name="uni0940" unicode="&#x940;" 
d="M181 740h130v-77h-130v-663h-86v663h-131v77h135v29q0 80 -21.5 116.5t-79.5 36.5t-79.5 -37t-21.5 -116v-67h-82v76q0 104 41.5 162t142 58t141.5 -58t41 -162v-38z" />
    <glyph glyph-name="uni0941" unicode="&#x941;" horiz-adv-x="0" 
d="M-32 12.5q48 -43.5 48 -121.5t-51 -123t-154.5 -45t-163.5 58t-61 153h82q1 -71 42 -104t110 -33q115 0 115 94q0 47 -27.5 68.5t-83.5 23.5v71q96 2 144 -41.5z" />
    <glyph glyph-name="uni0942" unicode="&#x942;" horiz-adv-x="0" 
d="M-256.5 -242.5q-54.5 41.5 -54.5 125t56 126.5t135 43q127 0 187 -85.5t59 -229.5h-79q3 243 -167 243q-50 0 -81 -25.5t-31 -73t32 -70t85 -14.5v-72q-87 -9 -141.5 32.5z" />
    <glyph glyph-name="uni0943" unicode="&#x943;" horiz-adv-x="0" 
d="M-97 68v-68h-16q-107 0 -107 -99q0 -45 25 -72t70 -27t73 13v-72q-32 -13 -71 -13q-84 0 -131 47.5t-47 124t48.5 121.5t136.5 45h19z" />
    <glyph glyph-name="uni0944" unicode="&#x944;" horiz-adv-x="0" 
d="M-94 -439h-38q-82 0 -133 34.5t-51 108t73 107.5q-75 36 -75 110.5t54 108.5t131 34h31v-64h-25q-110 0 -110 -75q0 -43 31 -59t86 -16h26v-70h-35q-107 0 -107 -76q0 -73 108 -73h34v-70z" />
    <glyph glyph-name="uni0945" unicode="&#x945;" horiz-adv-x="0" 
d="M53 995q0 -79 -47 -128.5t-145 -49.5t-145 49.5t-47 128.5h76q0 -46 29 -77.5t87 -31.5t87 31.5t29 77.5h76z" />
    <glyph glyph-name="uni0947" unicode="&#x947;" horiz-adv-x="0" 
d="M-444 904h-36v74h31q130 0 181 -35q56 -39 106 -111q28 -40 65 -100h-87q-84 124 -119 146q-37 23 -70 24.5t-71 1.5z" />
    <glyph glyph-name="uni0948" unicode="&#x948;" horiz-adv-x="0" 
d="M-466 1002h32q43 0 70 -2.5t56.5 -12.5t51 -27t48.5 -48q44 -54 111 -183h-85q-51 55 -96 67.5t-146 12.5h-36v69h31q63 0 92 -2q71 -7 139 -71q-52 80 -97.5 104t-133.5 24h-37v69z" />
    <glyph glyph-name="uni0949" unicode="&#x949;" horiz-adv-x="269" 
d="M327 995q0 -79 -47 -128.5t-145 -49.5t-145 49.5t-47 128.5h76q0 -46 29 -77.5t87 -31.5t87 31.5t29 77.5h76zM311 663h-130v-663h-86v663h-131v77h347v-77z" />
    <glyph glyph-name="uni094B" unicode="&#x94b;" 
d="M311 740v-77h-130v-663h-86v663h-131v77h120q-30 43 -45.5 65t-36.5 44t-33.5 30t-36 15.5t-45 8.5t-58.5 1h-36v74h31q129 0 178 -34q55 -37 106 -107q28 -39 63 -97h140z" />
    <glyph glyph-name="uni094C" unicode="&#x94c;" horiz-adv-x="264" 
d="M311 740v-77h-130v-663h-86v663h-131v77h120q-47 48 -90.5 58.5t-140.5 10.5h-36v69h31q63 0 92 -2q71 -7 139 -71q-52 80 -97.5 104t-133.5 24h-37v69h32q51 0 81.5 -4.5t63 -18t59.5 -43.5q55 -60 127 -196h137z" />
    <glyph glyph-name="uni094D" unicode="&#x94d;" horiz-adv-x="0" 
d="M23 -226h-94l-105 166h84z" />
    <glyph glyph-name="uni0950" unicode="&#x950;" horiz-adv-x="167" 
d="M486 375q63 0 87 15.5t24 64.5q0 116 43.5 175.5t146.5 59.5t148 -61.5t45 -184.5v-112q0 -178 -85.5 -249t-295.5 -40v75q164 -22 231 24.5t67 196.5v113q0 91 -22.5 128t-85.5 37t-87 -38.5t-24 -126t-47.5 -118.5t-136.5 -31q18 -39 18 -82q0 -97 -57 -153t-153 -56
t-156.5 58.5t-60.5 153.5h81q0 -62 37.5 -100.5t99.5 -38.5t95.5 36t33.5 98.5t-38 97.5t-102 35h-37v77h32q57 0 95 32.5t38 87.5t-32.5 88t-90 33t-90.5 -33t-34 -89h-80q0 88 57 141.5t148 53.5t147 -52.5t56 -139.5q0 -55 -27.5 -96.5t-78.5 -58.5v-5q21 -6 36 -16h55z
M683 922h75q0 -79 -47.5 -128.5t-144.5 -49.5t-144.5 50t-47.5 128h75q0 -46 29.5 -78t87.5 -32t87.5 32t29.5 78zM566 898q-22 0 -37.5 15t-15.5 37t15.5 37.5t37.5 15.5t37.5 -15.5t15.5 -37.5t-15.5 -37t-37.5 -15z" />
    <glyph glyph-name="uni0958" unicode="&#x958;" horiz-adv-x="1011" 
d="M1047 663h-487v-179q50 81 155.5 81t165 -65t59.5 -173t-78.5 -169.5t-199.5 -47.5l-1 74q87 -8 140 30.5t53 114.5t-39 117.5t-111 41.5t-108 -45.5t-36 -127.5v-315h-84v183q-54 -81 -161 -81t-168.5 64.5t-61.5 166t61 166.5t168.5 65t161.5 -82v181h-512v77h1083v-77
zM211.5 218.5q40.5 -40.5 113.5 -40.5t112 41.5t39 113.5t-40.5 113t-112.5 41t-112 -40.5t-40 -114t40.5 -114zM332 37q24 0 41.5 -17.5t17.5 -41.5t-17.5 -41.5t-41.5 -17.5t-41 17.5t-17 41.5t17 41.5t41 17.5z" />
    <glyph glyph-name="uni0959" unicode="&#x959;" horiz-adv-x="916" 
d="M-36 740h988v-77h-131v-663h-84v203q-48 -64 -147 -64q-11 0 -31 2q-22 -69 -84 -106t-148 -37q-113 0 -179 64t-66 176v169h34q73 0 108 15q20 9 28 30q15 43 15 132v79h-303v77zM168 236q0 -161 159 -161q61 0 100.5 24.5t53.5 69.5q-90 56 -90 175q0 89 55.5 146.5
t150.5 57.5t140 -60v175h-385v-80q0 -140 -37.5 -189.5t-146.5 -52.5v-105zM510.5 248.5q36.5 -35.5 96 -35.5t95 35.5t35.5 95.5t-35 95t-95 35t-96.5 -35t-36.5 -95t36.5 -95.5zM324 -69q24 0 41.5 -17.5t17.5 -41.5t-17.5 -41.5t-41.5 -17.5t-41 17.5t-17 41.5t17 41.5
t41 17.5z" />
    <glyph glyph-name="uni095A" unicode="&#x95a;" horiz-adv-x="714" 
d="M-36 740h786v-77h-131v-663h-86v663h-202v-242q0 -100 -34.5 -149.5t-117.5 -49.5q-160 0 -154 196h85q0 -59 13 -89t57 -30q46 0 58 37q10 28 10 84v243h-284v77zM185 104q24 0 41.5 -17.5t17.5 -41.5t-17.5 -41.5t-41.5 -17.5t-41 17.5t-17 41.5t17 41.5t41 17.5z" />
    <glyph glyph-name="uni095B" unicode="&#x95b;" horiz-adv-x="827" 
d="M-36 740h899v-77h-131v-663h-86v440h-181v-74q0 -117 -37 -185q-41 -77 -160 -77q-122 0 -164 79q-36 69 -36 183v148h86v-125q0 -137 26 -171q29 -37 88 -37q60 0 87 37q21 30 24 102q1 24 1 69v125h266v149h-682v77zM264 22q24 0 41.5 -17.5t17.5 -41.5t-17.5 -41.5
t-41.5 -17.5t-41 17.5t-17 41.5t17 41.5t41 17.5z" />
    <glyph glyph-name="uni095C" unicode="&#x95c;" horiz-adv-x="582" 
d="M470 482h-162q-61 0 -96 -16.5t-35 -64.5t32.5 -64.5t82.5 -16.5t79.5 -3t60.5 -13.5t52 -27.5q47 -39 47 -116t-57 -124.5t-160.5 -47.5t-169.5 55t-68 154h85q8 -135 157 -135q60 0 94 24.5t34 74.5q0 58 -44 74q-34 13 -87.5 13t-90 6.5t-68.5 23.5q-66 34 -66 127
q0 56 31 91.5t75 48t101 12.5h87v106h-420v77h654v-77h-148v-181zM325 -66q24 0 41.5 -17.5t17.5 -41.5t-17.5 -41.5t-41.5 -17.5t-41 17.5t-17 41.5t17 41.5t41 17.5z" />
    <glyph glyph-name="uni095D" unicode="&#x95d;" horiz-adv-x="635" 
d="M475 495h-73q-113 0 -179 -53.5t-66 -153.5t59.5 -152t156.5 -52q69 0 105.5 31.5t36.5 79.5q0 102 -90 102q-88 0 -88 -104h-79q-1 79 41 127.5t122 48.5t128.5 -45t48.5 -128.5t-63 -136t-164 -52.5q-130 0 -214.5 74.5t-84.5 208.5t88.5 206t228.5 74v93h-425v77h707
v-77h-196v-168zM381 -54q24 0 41.5 -17.5t17.5 -41.5t-17.5 -41.5t-41.5 -17.5t-41 17.5t-17 41.5t17 41.5t41 17.5z" />
    <glyph glyph-name="uni095E" unicode="&#x95e;" horiz-adv-x="990" 
d="M1026 663h-482v-206q54 83 170 83q97 0 156 -61.5t59 -164t-72.5 -162t-189.5 -50.5l-1 74q80 -7 129 31t49 109t-38 109t-109 38t-112 -47.5t-41 -122.5v-293h-86v312q-49 -79 -153 -79t-156.5 68.5t-52.5 180.5v181h-132v77h1062v-77zM182 663v-181q0 -85 32 -128.5
t102 -43.5t106 49t36 122v182h-276zM267 117q24 0 41.5 -17.5t17.5 -41.5t-17.5 -41.5t-41.5 -17.5t-41 17.5t-17 41.5t17 41.5t41 17.5z" />
    <glyph glyph-name="uni0960" unicode="&#x960;" horiz-adv-x="982" 
d="M1016 663h-445v-193h179q37 0 48 14.5t11 54.5v35h82v-365h-24q-84 0 -105 -33q-9 -15 -9 -37t10 -36.5t29 -20.5q32 -10 78 -10h26v-70h-29q-113 0 -113 -83q0 -38 27.5 -57.5t66 -19.5t73.5 7v-68q-38 -8 -70 -8q-82 0 -129.5 38t-47.5 103q0 41 20 72t53 47
q-33 13 -54 42t-21 67q0 59 39.5 90t97.5 37v135q-24 -7 -59 -7h-179v-397h-86v269l-262 -269h-110v5q43 38 366 355q-13 59 -54 93t-112 34t-117.5 -49.5t-46.5 -132.5h-85q0 116 66.5 187.5t181.5 71.5t173 -88v187h-521v77h1052v-77z" />
    <glyph glyph-name="uni0961" unicode="&#x961;" horiz-adv-x="907" 
d="M678 663v-155q75 -13 117 -72t42 -158q0 -32 -5 -67h-17q-85 0 -105 -33q-10 -15 -10 -37t10 -36.5t30 -20.5q32 -10 78 -10h26v-70h-29q-113 0 -113 -83q0 -38 28 -57.5t67 -19.5t71 8v-69q-32 -7 -69 -7q-82 0 -130 38t-48 102q0 41 20.5 72t53.5 47q-33 13 -54 42
t-21 67q0 58 38 89t94 35q0 166 -123 166q-137 0 -128 -208h-82q9 208 -128 208q-123 0 -123 -162q0 -88 47.5 -135t139.5 -40v-78q-125 -11 -199 58.5t-74 188.5t51 182.5t153 63.5q65 0 110.5 -31.5t63.5 -89.5q14 48 48.5 77.5t84.5 36.5v158h-629v77h979v-77h-265z" />
    <glyph glyph-name="uni0962" unicode="&#x962;" horiz-adv-x="0" 
d="M527 22q63 0 96 -42.5t33 -111.5q0 -16 -4 -44h-7q-71 0 -71 -57q0 -53 71 -53q24 0 38 4v-61q-14 -5 -44 -5q-60 0 -98.5 28t-38.5 75.5t23.5 74.5t61.5 34q7 91 -66 91q-77 0 -72 -121h-73q5 120 -71 120q-69 0 -69 -92q0 -105 112 -99v-66q-83 -7 -134.5 39.5
t-51.5 122.5t36 119.5t102 43.5q43 0 72 -21.5t41 -58.5q9 36 39 58t75 22z" />
    <glyph glyph-name="uni0963" unicode="&#x963;" horiz-adv-x="0" 
d="M644 -175q-46 0 -57.5 -8.5t-11.5 -20t4 -18t16 -9.5q14 -3 47 -5h13v-46h-10q-36 0 -53 -6t-17 -26q0 -31 53 -31q21 0 44 7v-50q-23 -7 -50 -7q-108 0 -108 76q0 44 40 62q-39 16 -39 58q0 30 22 46.5t53 18.5q7 91 -69.5 91t-71.5 -123h-73q5 120 -71 120
q-69 0 -69 -92q0 -105 112 -99v-66q-83 -7 -134.5 39.5t-51.5 122.5t36 119.5t102 43.5q43 0 72 -21.5t41 -58.5q9 36 39 58t75 22q63 0 95.5 -42.5t32.5 -111.5q0 -23 -4 -43h-7z" />
    <glyph glyph-name="uni0964" unicode="&#x964;" horiz-adv-x="256" 
d="M148 741h86v-741h-86v741z" />
    <glyph glyph-name="uni0965" unicode="&#x965;" horiz-adv-x="468" 
d="M360 741h86v-741h-86v741zM148 741h86v-741h-86v741z" />
    <glyph glyph-name="uni0966" unicode="&#x966;" horiz-adv-x="636" 
d="M213.5 712q44.5 19 111 19t117 -27.5t77.5 -79.5q49 -96 49 -258q0 -208 -74 -295q-61 -70 -177 -70q-213 0 -245 249q-6 52 -6 116.5t6.5 116t24 99.5t45 79.5t72 50.5zM403.5 627.5q-34.5 22.5 -81.5 22.5t-77.5 -16t-47.5 -41t-27 -64.5t-12.5 -76t-2.5 -86.5
t2.5 -86.5t12.5 -76t27 -64.5t47.5 -41t72.5 -16t72.5 16t48 41t26.5 65q16 64 16 145t-5.5 125t-21 87.5t-50 66z" />
    <glyph glyph-name="uni0967" unicode="&#x967;" horiz-adv-x="321" 
d="M134 0v629h-82v81h171v-710h-89z" />
    <glyph glyph-name="uni0968" unicode="&#x968;" horiz-adv-x="579" 
d="M56 10v65q24 21 75.5 65t76.5 66.5t66 61t62.5 64.5t44.5 60q43 64 43 126.5t-32.5 100.5t-102 38t-106.5 -42.5t-40 -112.5h-87q4 112 67.5 172.5t165 60.5t163 -57.5t61.5 -156.5q0 -119 -116 -245q-42 -45 -65 -66q-64 -62 -137 -123h340v-77h-479z" />
    <glyph glyph-name="uni0969" unicode="&#x969;" horiz-adv-x="589" 
d="M132.5 696.5q64.5 49.5 165 49.5t159 -53t58.5 -135q0 -59 -33 -103.5t-85 -60.5v-5q61 -17 96 -66t35 -131t-60.5 -139t-167 -57t-174.5 54t-75 153h86q5 -57 47.5 -93.5t113 -36.5t108 37.5t37.5 96.5q0 79 -50 112t-153 33h-24v76h25q188 2 188 121q0 55 -35.5 87
t-99.5 32t-101 -29.5t-45 -78.5h-88q8 87 72.5 136.5z" />
    <glyph glyph-name="uni096A" unicode="&#x96a;" horiz-adv-x="634" 
d="M420 240v396l-269 -396h269zM417 0v162h-372v64l344 494h116v-480h97v-78h-97v-162h-88z" />
    <glyph glyph-name="uni096B" unicode="&#x96b;" horiz-adv-x="634" 
d="M90 731h433v-79h-349v-229q22 33 67 55t102.5 22t105 -21.5t73.5 -58.5q49 -72 49 -164q0 -113 -63 -184.5t-176.5 -71.5t-178 53t-80.5 140h87q14 -54 57.5 -85t115 -31t112 48t40.5 129t-40.5 124.5t-120.5 43.5q-54 0 -93 -28t-58 -76h-83v413z" />
    <glyph glyph-name="uni096C" unicode="&#x96c;" horiz-adv-x="644" 
d="M452.5 361.5q-39.5 44.5 -112 44.5t-122 -40.5t-49.5 -118.5t43 -124t120 -46t118.5 43.5t41.5 120t-39.5 121zM335 670q-90 0 -133 -66t-46 -224q27 49 80 76.5t118 27.5q100 0 162 -64.5t62 -174t-61 -177.5t-175 -68q-182 0 -233 154q-29 87 -29 245t62 253t193 95
q96 0 152.5 -51.5t65.5 -127.5h-82q-13 52 -45 77t-91 25z" />
    <glyph glyph-name="uni096D" unicode="&#x96d;" horiz-adv-x="560" 
d="M40 728h482v-68l-286 -660h-100l299 651h-395v77z" />
    <glyph glyph-name="uni096E" unicode="&#x96e;" horiz-adv-x="635" 
d="M438 312.5q-46 36.5 -120.5 36.5t-121.5 -36.5t-47 -106t45.5 -109.5t122.5 -40t122 40.5t45 109.5t-46 105.5zM426.5 641.5q-39.5 33.5 -109 33.5t-109.5 -33.5t-40 -91.5t41.5 -93.5t107.5 -35.5t107.5 35.5t41.5 93.5t-39.5 91.5zM82 556q0 85 61.5 140.5t174 55.5
t173.5 -56t61 -141q0 -58 -30 -101.5t-78 -64.5q57 -19 92 -68.5t35 -118.5q0 -101 -70 -161.5t-184 -60.5t-184 60.5t-70 161.5q0 69 35 118.5t93 68.5q-109 52 -109 167z" />
    <glyph glyph-name="uni096F" unicode="&#x96f;" horiz-adv-x="635" 
d="M209.5 395q40.5 -44 115 -44t112.5 42t38 116t-40.5 117.5t-111.5 43.5t-112.5 -44t-41.5 -115.5t40.5 -115.5zM334 78q80 0 117 61.5t37 215.5q-26 -40 -72.5 -61t-100.5 -21q-99 0 -165.5 62.5t-66.5 171.5t63 174.5t175 65.5q131 0 188 -89.5t57 -281t-52.5 -283.5
t-184.5 -92q-101 0 -158 53t-68 133h83q23 -109 148 -109z" />
    <glyph glyph-name="uni0970" unicode="&#x970;" horiz-adv-x="486" 
d="M325 319.5q-25 26.5 -68.5 26.5t-71 -25.5t-27.5 -66.5t28 -67.5t70.5 -26.5t68 25.5t25.5 66.5t-25 67.5zM139 365.5q45 43.5 117.5 43.5t115.5 -44t43 -113t-44.5 -112t-115 -43t-116 45.5t-45.5 112.5t45 110.5z" />
    <glyph glyph-name="uni0972" unicode="&#x972;" horiz-adv-x="831" 
d="M650 398v342h217v-77h-131v-663h-86v326h-152q13 -34 13 -69q0 -93 -58 -148t-153 -55t-154.5 55t-59.5 148h81q0 -59 37 -94.5t97 -35.5t95 35.5t35 94.5t-36.5 89t-102.5 30h-37v77h32q57 0 94.5 28.5t37.5 81t-33.5 83.5t-87.5 31t-88.5 -31.5t-35.5 -82.5h-80
q0 84 57.5 135.5t146 51.5t145.5 -50.5t57 -133.5q0 -111 -105 -146v-5q20 -5 40 -17h215zM813 981h76q0 -79 -47 -128.5t-145 -49.5t-145 49.5t-47 128.5h76q0 -46 29 -77.5t87 -31.5t87 31.5t29 77.5z" />
    <glyph glyph-name="uni200B" unicode="&#x200b;" horiz-adv-x="0" 
 />
    <glyph glyph-name="uni200C" unicode="&#x200c;" horiz-adv-x="0" 
d="M24 -230h-47v1041h47v-1041z" />
    <glyph glyph-name="uni200D" unicode="&#x200d;" horiz-adv-x="0" 
d="M24 -230h-47v865l-69 -73l-33 33l93 93l-95 95l33 33l95 -95l96 95l32 -32l-96 -96l96 -95l-33 -33l-72 75v-865z" />
    <glyph glyph-name="endash" unicode="&#x2013;" horiz-adv-x="714" 
d="M94 327v78h526v-78h-526z" />
    <glyph glyph-name="emdash" unicode="&#x2014;" horiz-adv-x="921" 
d="M94 327v78h734v-78h-734z" />
    <glyph glyph-name="quoteleft" unicode="&#x2018;" horiz-adv-x="152" 
d="M127 578h-91q-12 52 -12 92q0 113 102 113v-44q-48 0 -48 -52v-23h49v-86z" />
    <glyph glyph-name="quoteright" unicode="&#x2019;" horiz-adv-x="152" 
d="M25 783h91q12 -53 12 -92q0 -113 -102 -113v44q48 0 48 52v23h-49v86z" />
    <glyph glyph-name="quotesinglbase" unicode="&#x201a;" horiz-adv-x="186" 
d="M39 67h93q50 -210 -90 -210v44q25 0 36.5 12t11.5 38v23h-51v93z" />
    <glyph glyph-name="quotedblleft" unicode="&#x201c;" horiz-adv-x="287" 
d="M262 578h-91q-12 52 -12 92q0 113 102 113v-44q-48 0 -48 -52v-23h49v-86zM127 578h-91q-12 52 -12 92q0 113 102 113v-44q-48 0 -48 -52v-23h49v-86z" />
    <glyph glyph-name="quotedblright" unicode="&#x201d;" horiz-adv-x="287" 
d="M25 783h91q12 -53 12 -92q0 -113 -102 -113v44q48 0 48 52v23h-49v86zM161 783h91q12 -53 12 -92q0 -113 -102 -113v44q48 0 48 52v23h-49v86z" />
    <glyph glyph-name="quotedblbase" unicode="&#x201e;" horiz-adv-x="186" 
d="M39 67h93q50 -210 -90 -210v44q25 0 36.5 12t11.5 38v23h-51v93z" />
    <glyph glyph-name="dagger" unicode="&#x2020;" horiz-adv-x="555" 
d="M313 539l193 10v-73l-193 9l10 -745h-91l10 745l-193 -9v73l193 -10l-10 242h91z" />
    <glyph glyph-name="daggerdbl" unicode="&#x2021;" horiz-adv-x="557" 
d="M507 549v-73l-193 9v-449l193 9v-72l-193 9l10 -242h-91l10 242l-193 -9v72l193 -9v449l-193 -9v73l193 -10l-10 242h91l-10 -242z" />
    <glyph glyph-name="bullet" unicode="&#x2022;" horiz-adv-x="446" 
d="M310 246.5q-36 -35.5 -87.5 -35.5t-87 35.5t-35.5 87t35.5 87t87 35.5t87.5 -35.5t36 -87t-36 -87z" />
    <glyph glyph-name="ellipsis" unicode="&#x2026;" horiz-adv-x="601" 
d="M113 0q-24 0 -41 17t-17 41.5t17 41.5t41 17t41 -17t17 -41.5t-17 -41.5t-41 -17zM488 0q-24 0 -41 17t-17 41.5t17 41.5t41 17t41 -17t17 -41.5t-17 -41.5t-41 -17zM301 0q-24 0 -41 17t-17 41.5t17 41.5t41 17t41 -17t17 -41.5t-17 -41.5t-41 -17z" />
    <glyph glyph-name="perthousand" unicode="&#x2030;" horiz-adv-x="1014" 
d="M822 229q-69 0 -69 -91t69 -91t69 91t-69 91zM718 30q-41 40 -41 107.5t41 108t104.5 40.5t104.5 -40.5t41 -108t-40.5 -107.5t-104.5 -40t-105 40zM493 229q-69 0 -69 -91t69 -91t69 91t-69 91zM388.5 30q-40.5 40 -40.5 107.5t41 108t104 40.5t104.5 -40.5t41.5 -108
t-41 -107.5t-105 -40t-104.5 40zM94 0l405 693h91l-405 -693h-91zM191 646q-69 0 -69 -91t69 -91t69 91t-69 91zM87 447.5q-41 40.5 -41 108t40.5 107.5t104.5 40t105 -40t41 -107.5t-41 -108t-104.5 -40.5t-104.5 40.5z" />
    <glyph glyph-name="guilsinglleft" unicode="&#x2039;" horiz-adv-x="280" 
d="M131 295l99 -175h-89l-96 175l96 175h89z" />
    <glyph glyph-name="guilsinglright" unicode="&#x203a;" horiz-adv-x="280" 
d="M139 120h-89l99 175l-99 175h89l96 -175z" />
    <glyph glyph-name="fraction" unicode="&#x2044;" horiz-adv-x="594" 
d="M68 0l405 693h91l-405 -693h-91z" />
    <glyph glyph-name="uni20A8" unicode="&#x20a8;" horiz-adv-x="1122" 
d="M890 458q-29 28 -80.5 28t-81 -24.5t-29.5 -63t33.5 -59.5t81 -30.5t95 -22t81 -47t33.5 -98t-57.5 -107t-149.5 -43.5t-147.5 46t-60.5 127h94q2 -46 32.5 -73.5t84 -27.5t84 23t30.5 58.5t-24 56.5t-60 29t-78.5 19t-78.5 23.5t-60 43.5t-24 78q0 69 57.5 116.5
t149 47.5t143.5 -46.5t57 -127.5h-94q-2 46 -31 74zM75 693h225q117 0 178.5 -57t61.5 -139.5t-45 -137.5t-135 -69l191 -290h-114l-182 286h-89v-286h-91v693zM166 620v-262h134q75 0 111.5 34.5t36.5 96.5q0 131 -148 131h-134z" />
    <glyph glyph-name="Euro" unicode="&#x20ac;" horiz-adv-x="798" 
d="M458 229h-238q29 -73 92.5 -114t139.5 -41q151 0 213 118h110q-40 -96 -124.5 -147t-197 -51t-204 64t-126.5 171h-95v68h80q-3 24 -3 49.5t3 51.5h-80v67h95q35 107 126.5 171t204 64t197 -51t124.5 -147h-110q-62 117 -207 117q-83 0 -146 -40.5t-92 -113.5h238v-67
h-256q-4 -21 -4 -50.5t4 -50.5h256v-68z" />
    <glyph glyph-name="uni20B9" unicode="&#x20b9;" horiz-adv-x="617" 
d="M459 624v-66q0 -25 -1 -37h130v-69h-136q-15 -101 -77.5 -139.5t-199.5 -38.5v-77q0 -135 117 -135t117 129h83q-3 -201 -201 -201q-98 0 -150 56t-52 154v140q162 0 215 19t65 93h-325v69h330v103h-330v69h544v-69h-129z" />
    <glyph glyph-name="uni20BA" unicode="&#x20ba;" horiz-adv-x="858" 
d="M629 417h94q0 -220 -87.5 -327t-277.5 -107q-81 0 -170 22v236l-159 -40v70l159 39v97l-164 -40v67l164 41v224h93v-201l176 44v-69l-176 -43v-97l169 41v-68l-169 -42v-190q33 -7 78 -7q141 0 205.5 87.5t64.5 262.5z" />
    <glyph glyph-name="uni20BD" unicode="&#x20bd;" horiz-adv-x="618" 
d="M340 286h-134v-91h217v-75h-217v-120h-91v120h-87v75h87v91h-86v72h86v335h225q117 0 178.5 -57t61.5 -146t-59.5 -146.5t-180.5 -57.5zM206 620v-262h134q75 0 111.5 34.5t36.5 96.5q0 131 -148 131h-134z" />
    <glyph glyph-name="uni2113" unicode="&#x2113;" horiz-adv-x="241" 
d="M75 0v740h91v-740h-91z" />
    <glyph glyph-name="trademark" unicode="&#x2122;" horiz-adv-x="783" 
d="M717 704v-352h-70v242l-107 -242h-51l-106 246v-246h-68v352h88l113 -265l115 265h86zM22 649v55h231v-55h-80l1 -297h-73v297h-79z" />
    <glyph glyph-name="Omega" unicode="&#x2126;" horiz-adv-x="783" 
d="M52 72h135q-70 40 -109 113.5t-39 161.5q0 154 102 253.5t251 99.5t250.5 -99.5t101.5 -253.5q0 -88 -38.5 -161.5t-109.5 -113.5h135v-72h-274v75q87 22 141 93.5t54 175.5q0 125 -73.5 200t-187 75t-186.5 -75.5t-73 -199.5q0 -104 53.5 -175.5t141.5 -93.5v-75h-275
v72z" />
    <glyph glyph-name="estimated" unicode="&#x212e;" horiz-adv-x="761" 
d="M182 379h388v176q-66 85 -193.5 85t-194.5 -96v-165zM686 136q-135 -143 -291.5 -143t-252 89.5t-95.5 249t88.5 264t243.5 104.5t245 -95.5t90 -228.5v-62h-532v-166q78 -95 207 -95q72 0 131 31.5t125 96.5z" />
    <glyph glyph-name="partialdiff" unicode="&#x2202;" horiz-adv-x="571" 
d="M92.5 50q-53.5 59 -53.5 183t80 224.5t195 100.5q81 0 125 -68q-5 88 -43 140.5t-107 52.5q-39 0 -79 -11v54q46 14 92 14q111 0 170.5 -86t59.5 -242q0 -190 -87 -305.5t-215 -115.5q-84 0 -137.5 59zM428 322q0 78 -31 119.5t-86 41.5q-75 0 -127 -75.5t-52 -184.5
q0 -78 29.5 -117.5t81.5 -39.5q75 0 130 77t55 179z" />
    <glyph glyph-name="Delta" unicode="&#x2206;" horiz-adv-x="680" 
d="M567 71l-227 518l-227 -518h454zM660 0h-640v71l282 622h76l282 -622v-71z" />
    <glyph glyph-name="product" unicode="&#x220f;" horiz-adv-x="738" 
d="M36 621v72h667v-72h-79v-621h-91v621h-328v-621h-91v621h-78z" />
    <glyph glyph-name="summation" unicode="&#x2211;" horiz-adv-x="457" 
d="M417 693v-71h-299l265 -270v-70l-265 -269h299v-71h-377v105l262 268l-262 273v105h377z" />
    <glyph glyph-name="minus" unicode="&#x2212;" horiz-adv-x="587" 
d="M94 327v78h399v-78h-399z" />
    <glyph glyph-name="uni2215" unicode="&#x2215;" horiz-adv-x="539" 
d="M82 -170l273 1112h90l-273 -1112h-90z" />
    <glyph glyph-name="uni2219" unicode="&#x2219;" horiz-adv-x="230" 
d="M115 285q-24 0 -41 17t-17 41.5t17 41.5t41 17t41 -17t17 -41.5t-17 -41.5t-41 -17z" />
    <glyph glyph-name="radical" unicode="&#x221a;" horiz-adv-x="788" 
d="M707 868h73l-494 -911h-48l-124 219l-65 -39l-27 48l140 84l112 -200z" />
    <glyph glyph-name="infinity" unicode="&#x221e;" horiz-adv-x="671" 
d="M645 348q0 -68 -44 -108.5t-109 -40.5q-79 0 -158 96q-25 -44 -67 -70.5t-99 -25.5t-99.5 40.5t-42.5 107.5t44.5 108.5t109.5 40.5q46 0 82.5 -25.5t73.5 -71.5q26 44 68 71t98.5 26t99.5 -40.5t43 -107.5zM126 289q22 -21 55.5 -21t63.5 20.5t51 54.5q-23 28 -38 43
q-39 41 -74.5 41t-57.5 -21.5t-22 -58.5t22 -58zM432.5 289.5q26.5 -21.5 59 -21.5t54 21.5t21.5 58.5t-21.5 58t-55.5 21t-64.5 -21t-50.5 -55q31 -40 57.5 -61.5z" />
    <glyph glyph-name="integral" unicode="&#x222b;" horiz-adv-x="261" 
d="M285 918h23l-8 -74h-16q-27 0 -40.5 -15.5t-17.5 -51.5l-92 -834q-8 -74 -44.5 -107t-105.5 -33h-23l8 74h16q27 0 40.5 15.5t17.5 50.5l92 834q8 75 44.5 108t105.5 33z" />
    <glyph glyph-name="approxequal" unicode="&#x2248;" horiz-adv-x="520" 
d="M89 522.5q38 35.5 86 35.5t95.5 -32t74 -32t46.5 16t24 45h68q-26 -143 -146 -143q-40 0 -87.5 32t-73.5 32t-46.5 -16.5t-24.5 -44.5h-67q13 72 51 107.5zM89 311.5q38 35.5 86 35.5t95.5 -32t74 -32t46.5 16t24 45h68q-26 -143 -146 -143q-40 0 -87.5 32t-73.5 32
t-46.5 -16.5t-24.5 -44.5h-67q13 72 51 107.5z" />
    <glyph glyph-name="notequal" unicode="&#x2260;" horiz-adv-x="762" 
d="M646 514v-80h-159l-124 -137h283v-79h-355l-87 -96h-78l87 96h-87v79h158l124 137h-282v80h354l87 96h79l-87 -96h87z" />
    <glyph glyph-name="lessequal" unicode="&#x2264;" horiz-adv-x="550" 
d="M457 595l-241 -191l241 -193h-122l-242 192l242 192h122zM96 95v68h357v-68h-357z" />
    <glyph glyph-name="greaterequal" unicode="&#x2265;" horiz-adv-x="550" 
d="M97 95v68h357v-68h-357zM215 211h-122l241 193l-241 191h122l242 -192z" />
    <glyph glyph-name="lozenge" unicode="&#x25ca;" horiz-adv-x="554" 
d="M420 350l-143 143l-143 -143l143 -144zM36 350l241 241l241 -241l-241 -242z" />
    <glyph glyph-name="uni25CC" unicode="&#x25cc;" horiz-adv-x="660" 
d="M257 560q0 20 12.5 32t31.5 12t31.5 -12t12.5 -32t-12.5 -32t-31.5 -12t-31.5 12t-12.5 32zM396 514q-13 13 -13 31.5t12.5 31.5t32 13t31.5 -12.5t12 -31.5t-12.5 -32t-31 -13t-31.5 13zM478 477q0 19 12.5 32t31.5 13t31.5 -12.5t12.5 -32t-12.5 -32t-31.5 -12.5
t-31.5 12.5t-12.5 31.5zM528 359q0 19 12 31.5t31.5 12.5t32 -12.5t12.5 -31.5t-12.5 -31.5t-32 -12.5t-31.5 12.5t-12 31.5zM518 225q0 19 13 32t31.5 13t31 -13t12.5 -32t-12.5 -31.5t-31 -12.5t-31.5 12.5t-13 31.5zM445 127q0 19 12.5 31.5t31.5 12.5t32 -12.5t13 -31.5
t-13 -31.5t-32 -12.5t-31.5 12.5t-12.5 31.5zM324 74q0 20 12 32t32 12t32.5 -12.5t12.5 -31.5t-12.5 -31.5t-32.5 -12.5t-32 12t-12 32zM210 57q-13 13 -13 32t13 32t32 13t31.5 -13t12.5 -32t-12.5 -32t-31.5 -13t-32 13zM96 165q0 19 12.5 31.5t31.5 12.5t31.5 -12.5
t12.5 -31.5t-12.5 -31.5t-32 -12.5t-31.5 12.5t-12 31.5zM44 281q0 19 12.5 32t31.5 13t31.5 -12.5t12.5 -32t-12.5 -31.5t-31.5 -12t-31.5 12t-12.5 31zM57 407q0 19 13 31.5t32 12.5t32 -12.5t13 -31.5t-13 -31.5t-32 -12.5t-32 12.5t-13 31.5zM151.5 484.5
q-12.5 12.5 -12.5 32t12.5 32t31.5 12.5t31.5 -12.5t12.5 -32t-12.5 -32t-31.5 -12.5t-31.5 12.5z" />
    <glyph glyph-name="uniF6C3" unicode="&#xf6c3;" horiz-adv-x="124" 
d="M11 -48h91q12 -53 12 -92q0 -113 -102 -113v44q48 0 48 52v23h-49v86z" />
    <glyph glyph-name="uF0001" unicode="&#xf0001;" horiz-adv-x="0" 
 />
    <glyph glyph-name="uF0002" unicode="&#xf0002;" horiz-adv-x="333" 
 />
    <glyph glyph-name="uF01B6" unicode="&#xf01b6;" horiz-adv-x="786" 
d="M607 740h214v-77h-130v-663h-84v372h-280q-5 -3 -22.5 -12t-24 -12.5t-22 -12.5t-22 -14t-19.5 -14.5t-19 -16.5t-14.5 -17t-11.5 -19q-10 -26 -10 -46q0 -45 29.5 -73.5t85.5 -28.5t87 33t31 84h73v-259h-83v122q-39 -56 -125 -56t-135 46t-49 117.5t45 117.5t119 85
q-66 16 -104 62t-38 120.5t57 123t142.5 48.5t137 -49t51.5 -126t-64 -131h185v296zM407 568q0 51 -30.5 78.5t-81 27.5t-83.5 -27.5t-33 -85.5t42.5 -87.5t107.5 -29.5q78 47 78 124z" />
    <glyph glyph-name="uF01B7" unicode="&#xf01b7;" horiz-adv-x="799" 
d="M-36 740h869v-77h-134v-663h-86v453h-193q82 -49 82 -142.5t-52.5 -148.5t-141.5 -55q-55 0 -98 21t-63 52v-140h-85v292h81q5 -72 45.5 -110.5t104.5 -38.5t95.5 34.5t31.5 99.5t-48.5 100.5t-124.5 35.5h-9v72h375v138h-649v77z" />
    <glyph glyph-name="uF01B8" unicode="&#xf01b8;" horiz-adv-x="764" 
d="M940 663h-380v-179q50 81 155.5 81t164.5 -65t59 -168h-85q0 73 -39 114.5t-111 41.5t-108 -45.5t-36 -127.5v-315h-84v183q-54 -81 -161 -81t-168.5 64.5t-61.5 166t61 166.5t168.5 65t161.5 -82v181h-512v77h976v-77zM211.5 218.5q40.5 -40.5 113.5 -40.5t112 41.5
t39 113.5t-40.5 113t-112.5 41t-112 -40.5t-40 -114t40.5 -114z" />
    <glyph glyph-name="uF01B9" unicode="&#xf01b9;" horiz-adv-x="652" 
d="M352 663v-80q0 -140 -37.5 -189.5t-146.5 -52.5v-105q0 -161 159 -161q61 0 101.5 25t52.5 71q-90 55 -90 173q0 95 60 149.5t157 54.5t156.5 -54.5t59.5 -150t-59.5 -150t-156.5 -54.5q-28 0 -48 4q-21 -70 -83.5 -107.5t-149.5 -37.5q-113 0 -179 64t-66 176v169h35
q53 0 78.5 4.5t44 24t23 52t4.5 96.5v79h-305v77h862v-77h-472zM705.5 439q-36.5 35 -97.5 35t-97.5 -35t-36.5 -95t36.5 -95.5t97.5 -35.5t97.5 35.5t36.5 95.5t-36.5 95z" />
    <glyph glyph-name="uF01BA" unicode="&#xf01ba;" horiz-adv-x="439" 
d="M487 740v-77h-156v-242q0 -100 -34.5 -149.5t-117.5 -49.5q-160 0 -154 196h85q0 -59 13 -89t57 -30q46 0 58 37q10 28 10 84v243h-284v77h523z" />
    <glyph glyph-name="uF01BB" unicode="&#xf01bb;" horiz-adv-x="403" 
d="M594 663h-415v-29q0 -87 26 -121.5t104 -34.5h36v-75h-36q-66 0 -107 -28t-41 -84.5t48 -82t128 -25.5t129 44.5t49 128.5h78q0 -125 -73 -187t-186 -62t-186 46t-73 136q0 54 28 92.5t74 57.5v6q-50 23 -67.5 66.5t-17.5 122.5v29h-128v77h630v-77z" />
    <glyph glyph-name="uF01BC" unicode="&#xf01bc;" horiz-adv-x="687" 
d="M-36 740h745v-77h-239v-181h-162q-61 0 -96 -16.5t-35 -64.5t32.5 -64.5t82.5 -16.5t79.5 -3t60.5 -13.5t52 -27.5q47 -39 47 -116t-57 -124.5t-160.5 -47.5t-169.5 55t-68 154h85q8 -135 157 -135q60 0 94 24.5t34 74.5q0 58 -44 74q-34 13 -87.5 13t-90 6.5t-68.5 23.5
q-66 34 -66 127q0 56 31 91.5t75 48t101 12.5h87v106h-420v77zM548 408.5q17 16.5 40.5 16.5t40 -16.5t16.5 -40t-16.5 -40.5t-40 -17t-40.5 17t-17 40.5t17 40zM275 -78h83l115 -166h-94z" />
    <glyph glyph-name="uF01BD" unicode="&#xf01bd;" horiz-adv-x="457" 
d="M-36 740h664v-77h-664v77zM413 455h-29q-72 0 -115.5 -38t-43.5 -104t43.5 -102t120.5 -36t117 48.5t40 129.5h81q0 -116 -62 -185t-172.5 -69t-180.5 56t-70 154.5t76 145.5h-169v72h364v-72z" />
    <glyph glyph-name="uF01BE" unicode="&#xf01be;" horiz-adv-x="820" 
d="M856 663h-671v-43q0 -96 26 -133t111 -37h13v-75h-14q-71 0 -113.5 -31.5t-42.5 -88t37 -90t89 -45.5t118 -12q131 0 207 60t76 182q0 74 -28.5 109t-79 35t-78 -40t-25.5 -154h-77q-4 137 42 201t140 66q86 0 134.5 -60.5t48.5 -162.5q0 -144 -96 -228t-263 -84
q-134 0 -228 48q-48 25 -75 68t-27 101t30.5 100t83.5 62v6q-57 19 -76 67t-19 141v38h-135v77h892v-77z" />
    <glyph glyph-name="uF01BF" unicode="&#xf01bf;" horiz-adv-x="557" 
d="M-36 740h757v-77h-757v77zM720 514v-74h-255v-74q0 -117 -37 -185q-41 -77 -160 -77q-122 0 -164 79q-36 69 -36 183v148h86v-125q0 -137 26 -171q29 -37 88 -37q60 0 87 37q21 30 24 102q1 24 1 69v125h340z" />
    <glyph glyph-name="uF01C0" unicode="&#xf01c0;" horiz-adv-x="553" 
d="M481 492h-162q-103 0 -123 -31q-9 -15 -9 -40q0 -46 28 -60.5t84 -14.5h404v-69h-227q19 -11 32.5 -34.5t13.5 -51.5q0 -69 -48 -115.5t-137 -46.5q-50 0 -91 19.5t-63 50.5v-135h-83v261h83q3 -56 41 -89.5t100 -33.5q115 0 115 94q0 56 -37 69q-31 11 -78 11t-74.5 2.5
t-57.5 11.5t-48 24q-43 36 -43 109q0 87 65 118q54 26 142 26h87v96h-431v77h739v-77h-222v-171z" />
    <glyph glyph-name="uF01C1" unicode="&#xf01c1;" horiz-adv-x="556" 
d="M-36 740h725v-77h-725v77zM134 530q57 49 156.5 49t157 -54.5t69.5 -143.5h172v-76h-172q-9 -91 -67.5 -147.5t-158 -56.5t-157 49.5t-70.5 120.5h86q10 -39 45.5 -66t101 -27t102 43t36.5 119t-36.5 119.5t-102 43.5t-101 -27t-45.5 -66h-86q13 71 70 120z" />
    <glyph glyph-name="uF01C2" unicode="&#xf01c2;" horiz-adv-x="655" 
d="M515 -199h-94l-105 165h84zM445 485h-69q-102 -1 -161.5 -47t-59.5 -133.5t51 -136.5t135 -49t132.5 49t48.5 134h84q0 -119 -72.5 -189.5t-192.5 -70.5t-195.5 71t-75.5 190t79.5 187t209.5 71v102h-398v77h732v-77h-248v-178z" />
    <glyph glyph-name="uF01C3" unicode="&#xf01c3;" horiz-adv-x="669" 
d="M343 485q-82 0 -132.5 -50t-50.5 -131t50.5 -131t132.5 -50t132.5 50t50.5 131t-50.5 131t-132.5 50zM549 476.5q63 -68.5 63 -177.5t-76 -180t-193 -71t-192.5 71t-75.5 179.5t62.5 177t162.5 81.5v106h-336v77h741v-77h-319v-106q100 -12 163 -80.5zM505 -197h-94
l-105 166h84z" />
    <glyph glyph-name="uF01C4" unicode="&#xf01c4;" horiz-adv-x="582" 
d="M470 482h-162q-61 0 -96 -16.5t-35 -64.5t32.5 -64.5t82.5 -16.5t79.5 -3t60.5 -13.5t52 -27.5q47 -39 47 -116t-57 -124.5t-160.5 -47.5t-169.5 55t-68 154h85q8 -135 157 -135q60 0 94 24.5t34 74.5q0 58 -44 74q-34 13 -87.5 13t-90 6.5t-68.5 23.5q-66 34 -66 127
q0 56 31 91.5t75 48t101 12.5h87v106h-420v77h654v-77h-148v-181zM278 -79h84l114 -165h-93z" />
    <glyph glyph-name="uF01C5" unicode="&#xf01c5;" horiz-adv-x="635" 
d="M475 495h-73q-113 0 -179 -53.5t-66 -153.5t59.5 -152t156.5 -52q69 0 105.5 31.5t36.5 79.5q0 102 -90 102q-88 0 -88 -104h-79q-1 79 41 127.5t122 48.5t128.5 -45t48.5 -128.5t-63 -136t-164 -52.5q-130 0 -214.5 74.5t-84.5 208.5t88.5 206t228.5 74v93h-425v77h707
v-77h-196v-168zM347 -63h84l115 -166h-94z" />
    <glyph glyph-name="uF01C6" unicode="&#xf01c6;" horiz-adv-x="589" 
d="M625 740v-77h-124v-255q0 -240 -201.5 -240t-201.5 240v255h-134v77h661zM416 406v257h-233v-257q0 -80 25 -120.5t92 -40.5t91.5 40.5t24.5 120.5z" />
    <glyph glyph-name="uF01C7" unicode="&#xf01c7;" horiz-adv-x="356" 
d="M519 663h-555v77h555v-77zM519 497v-76h-170q-92 0 -145.5 -41.5t-53.5 -130.5t45 -133.5t146 -44.5v-73h-13q-132 0 -198.5 66.5t-66.5 189t77 183t209 60.5h170z" />
    <glyph glyph-name="uF01C8" unicode="&#xf01c8;" horiz-adv-x="478" 
d="M579 356h80q0 -120 -74.5 -190.5t-200.5 -70.5q-153 0 -230 98t-58 257q50 -2 106.5 -2t98 8.5t67.5 36t26 76.5t-26.5 76.5t-76 27.5t-76 -33.5t-24.5 -90.5h-82q-3 90 48 145t135 55t135.5 -50t51.5 -133q0 -114 -89 -153q-79 -35 -207 -33q-5 -96 47.5 -152t147.5 -56
t148 49t53 135z" />
    <glyph glyph-name="uF01C9" unicode="&#xf01c9;" horiz-adv-x="596" 
d="M522 0h-86v146q-39 -52 -140 -52t-167.5 61.5t-66.5 175.5t79.5 172t216.5 58h40v102h-434v77h668v-77h-148v-180h-114q-165 0 -205 -81q-16 -33 -16 -81q0 -75 43.5 -113t111.5 -38q140 0 140 124h78v-294zM642 -236h-94l-105 166h84z" />
    <glyph glyph-name="uF01CA" unicode="&#xf01ca;" horiz-adv-x="420" 
d="M329 644q-22 29 -65.5 29t-68 -24t-24.5 -66q0 -61 43 -90.5t114 -29.5h50v-74h-46q-67 0 -110.5 -24.5t-43.5 -78.5t46.5 -80.5t122.5 -26.5t126 43t50 133h81q0 -132 -78 -193q-74 -58 -182.5 -58t-180 45.5t-71.5 133.5q0 103 105 142v6q-47 18 -77.5 58.5
t-30.5 104.5t47.5 110t126 46t123 -51t39.5 -133h-76q2 49 -20 78z" />
    <glyph glyph-name="uF01CB" unicode="&#xf01cb;" horiz-adv-x="499" 
d="M659 663h-695v77h695v-77zM659 487v-74h-264q63 -38 63 -124.5t-53 -137.5t-141 -51t-146.5 53t-58.5 142.5t59 140.5t169 51h372zM347.5 379q-31.5 32 -84.5 32t-87.5 -31t-34.5 -87.5t35.5 -86.5t86 -30t83.5 31t33 85.5t-31.5 86.5z" />
    <glyph glyph-name="uF01CC" unicode="&#xf01cc;" horiz-adv-x="377" 
d="M473 439h82q0 -111 -61 -175t-173.5 -64t-171.5 67t-59 183v213h-126v77h593v-77h-381v-211q0 -175 148.5 -175t148.5 162z" />
    <glyph glyph-name="uF01CD" unicode="&#xf01cd;" horiz-adv-x="751" 
d="M939 663h-395v-206q54 83 170 83q97 0 155.5 -61.5t57.5 -161.5h-82q0 70 -38.5 108t-109.5 38t-112 -47.5t-41 -122.5v-293h-86v312q-49 -79 -153 -79t-156.5 68.5t-52.5 180.5v181h-132v77h975v-77zM182 663v-181q0 -85 32 -128.5t102 -43.5t106 49t36 122v182h-276z
" />
    <glyph glyph-name="uF01CE" unicode="&#xf01ce;" horiz-adv-x="414" 
d="M131 510q75 67 190.5 67t190.5 -67t75 -179t-75 -178.5t-190.5 -66.5t-190.5 66.5t-75 178.5t75 179zM505 331q0 80 -51 126.5t-128.5 46.5t-123.5 -36l284 -221q19 38 19 84zM138 331q0 -80 50.5 -126.5t130 -46.5t129.5 41l-287 224q-23 -40 -23 -92zM586 740v-77h-622
v77h622z" />
    <glyph glyph-name="uF01CF" unicode="&#xf01cf;" horiz-adv-x="534" 
d="M689 452v-74h-229v-59q0 -220 -181 -220q-80 0 -134 50t-54 128q0 175 233 175h53v83q0 64 -19 99t-69 35t-68.5 -35.5t-18.5 -102.5h-84q-2 215 171 215q171 0 171 -212v-82h229zM377 318v60h-58q-70 0 -107.5 -23t-37.5 -74t29 -78.5t80 -27.5t72.5 35.5t21.5 107.5z
" />
    <glyph glyph-name="uF01D0" unicode="&#xf01d0;" horiz-adv-x="518" 
d="M680 663h-260v-209h260v-74h-260v-59q0 -220 -181 -220q-80 0 -134 50t-54 128q0 175 234 175h52v209h-373v77h716v-77zM337 320v60h-58q-70 0 -107.5 -22.5t-37.5 -73.5t29.5 -79t80.5 -28t72 35.5t21 107.5z" />
    <glyph glyph-name="uF01D1" unicode="&#xf01d1;" horiz-adv-x="452" 
d="M345 663v-33q0 -63 -6 -102t-25 -72.5t-56.5 -49.5t-98.5 -20q-2 -92 49.5 -147.5t146 -55.5t142.5 57.5t48 160.5h82q1 -138 -72 -216.5t-200 -78.5q-148 0 -221 91t-65 250q97 0 133 19q22 12 33.5 23t16.5 37q8 35 8 106v31h-296v77h664v-77h-283z" />
    <glyph glyph-name="uF01D2" unicode="&#xf01d2;" horiz-adv-x="524" 
d="M447 663v-50q0 -89 -11 -140t-43.5 -82.5t-83.5 -42.5t-140 -11v-124q0 -138 109.5 -138t109.5 135h86q0 -98 -51 -155t-145 -57t-145 58t-51 156v198h50t72.5 0.5t68 7.5t49 17t23.5 36t14.5 57.5t1.5 87.5v47h-397v77h596v-77h-113zM243 -73h82l114 -162h-94z" />
    <glyph glyph-name="uF01D3" unicode="&#xf01d3;" horiz-adv-x="699" 
d="M837 271h-86q0 163 -122 163q-137 0 -128 -208h-82q9 208 -128 208q-123 0 -123 -162q0 -88 47.5 -135t139.5 -40v-78q-125 -11 -199 58.5t-74 188.5t51 182.5t153 63.5q65 0 110.5 -31.5t63.5 -89.5q17 56 61.5 88.5t111.5 32.5q105 0 154.5 -66.5t49.5 -174.5zM837 663
h-873v77h873v-77z" />
    <glyph glyph-name="uF01D4" unicode="&#xf01d4;" horiz-adv-x="378" 
d="M184 449.5q-45 -43.5 -45 -118t45 -118t120 -43.5t120 43.5t45 118t-45 118t-120 43.5t-120 -43.5zM124 158.5q-70 64.5 -70 173t70 173t180 64.5t180 -64.5t70 -173t-70 -173t-180 -64.5t-180 64.5zM554 663h-590v77h590v-77z" />
    <glyph glyph-name="uF01D5" unicode="&#xf01d5;" horiz-adv-x="555" 
d="M159.5 682q55.5 67 155 67t156.5 -56t57 -144q0 -119 -72 -168.5t-201 -51.5q-18 0 -60 2v-130q0 -61 30.5 -93.5t90 -32.5t86 37.5t27.5 109.5h86q-4 -224 -202 -224q-94 0 -149.5 53.5t-55.5 150.5v201h112q135 0 180 37q42 36 42 101.5t-32 98.5t-94 33t-93 -44
t-29 -114h-85q-5 100 50.5 167z" />
    <glyph glyph-name="uF01D6" unicode="&#xf01d6;" horiz-adv-x="386" 
d="M534 663h-358v-4l357 -280q0 -78 -55.5 -130.5t-149.5 -52.5q-113 0 -175.5 67t-62.5 182v218h-126v77h570v-77zM176 448q0 -176 152 -176q54 0 87 25t39 64l-278 219v-132z" />
    <glyph glyph-name="uF01D7" unicode="&#xf01d7;" horiz-adv-x="518" 
d="M83 420l52 -1q24 0 58 2l1 3h25q78 12 98 60t20 179h-373v77h712v-77h-253q-2 -96 -12.5 -151.5t-36.5 -87.5h302v-72h-506v-141q0 -136 107 -136q59 0 83 38.5t24 113.5h85q2 -108 -46 -168.5t-144 -60.5t-146 58t-50 156v208z" />
    <glyph glyph-name="uF01D8" unicode="&#xf01d8;" horiz-adv-x="610" 
d="M484 483h-174q-53 0 -85.5 -19.5t-32.5 -59.5q0 -54 63 -77q28 7 65 7q93 0 154.5 -47t66.5 -117h-85q-21 88 -136 88q-66 0 -105 -37.5t-39 -98.5t39.5 -99.5t104.5 -38.5q115 0 136 88h85q-5 -70 -66.5 -117t-159.5 -47t-161.5 59t-63.5 155q0 111 84 170
q-69 42 -69 115.5t52.5 112t144.5 38.5h96v105h-434v77h682v-77h-162v-180zM294 -163h84l115 -166h-94z" />
    <glyph glyph-name="uF01D9" unicode="&#xf01d9;" horiz-adv-x="939" 
d="M288 137q68 0 108 42t40 109t-40 109t-108 42t-110.5 -41.5t-42.5 -109t42.5 -109.5t110.5 -42zM781.5 397.5q-42.5 41.5 -109.5 41.5t-108 -42t-41 -109t41 -109t109 -42t109.5 41.5t41.5 109.5t-42.5 109.5zM676 517q101 0 167 -64t66 -165t-66 -165t-167 -64
q-65 0 -118 31.5t-79 88.5q-26 -58 -78.5 -89t-116.5 -31q-102 0 -168 64t-66 165t66.5 165t167.5 64q65 0 117 -31t78 -90q25 59 78.5 90t118.5 31zM975 663h-1011v77h1011v-77z" />
    <glyph glyph-name="uF01DA" unicode="&#xf01da;" horiz-adv-x="535" 
d="M378.5 646.5q-30.5 27.5 -81 27.5t-83.5 -27.5t-33 -85.5t42.5 -87.5t107.5 -29.5q78 46 78 124q0 51 -30.5 78.5zM157 701.5q57 48.5 142.5 48.5t137 -49t51.5 -126t-64 -131h241v-72h-336q-5 -3 -22.5 -12t-24 -12.5t-22 -12.5t-22 -14t-19.5 -14.5t-19 -16.5
t-14.5 -17t-11.5 -19q-10 -26 -10 -46q0 -45 29.5 -73.5t86 -28.5t87 33t30.5 84h74v-259h-84v123q-16 -23 -49 -40t-81 -17q-80 0 -129.5 46.5t-49.5 118t45.5 117.5t118.5 84q-66 16 -104 62t-38 120.5t57 123z" />
    <glyph glyph-name="uF01DB" unicode="&#xf01db;" horiz-adv-x="568" 
d="M-12 740h721v-77h-721v77zM281 526h428v-74h-290q43 -22 68 -63.5t25 -95.5q0 -87 -53 -147t-151 -60t-150 68v-173h-84v306h81q0 -52 41.5 -88t102 -36t96 37.5t35.5 106t-41.5 106.5t-107.5 39v74z" />
    <glyph glyph-name="uF01DC" unicode="&#xf01dc;" horiz-adv-x="748" 
d="M935 663h-380v-179q50 81 155.5 81t164.5 -65t59 -168h-85q0 73 -39 114.5t-111 41.5t-108 -45.5t-36 -127.5v-315h-84v183q-54 -81 -161 -81t-168.5 64.5t-61.5 166t61 166.5t168.5 65t161.5 -82v181h-512v77h976v-77zM206.5 218.5q40.5 -40.5 113.5 -40.5t112 41.5
t39 113.5t-40.5 113t-112.5 41t-112 -40.5t-40 -114t40.5 -114zM325 22q24 0 41.5 -17.5t17.5 -41.5t-17.5 -41.5t-41.5 -17.5t-41 17.5t-17 41.5t17 41.5t41 17.5z" />
    <glyph glyph-name="uF01DD" unicode="&#xf01dd;" horiz-adv-x="636" 
d="M347 663v-80q0 -140 -37.5 -189.5t-146.5 -52.5v-105q0 -161 158 -161q62 0 102.5 25t52.5 71q-90 53 -90 173q0 95 60 149.5t157 54.5t154.5 -54.5t57.5 -150t-57.5 -150t-154.5 -54.5q-28 0 -48 4q-21 -70 -83.5 -107.5t-149.5 -37.5q-113 0 -179 64t-66 176v169h35
q53 0 78.5 4.5t44 24t23 52t4.5 96.5v79h-303v77h860v-77h-472zM700 439q-37 35 -97.5 35t-97 -35t-36.5 -95t36.5 -95.5t97 -35.5t97.5 35.5t37 95.5t-37 95zM324 -62q24 0 41.5 -17.5t17.5 -41.5t-17.5 -41.5t-41.5 -17.5t-41.5 17.5t-17.5 41.5t17.5 41.5t41.5 17.5z" />
    <glyph glyph-name="uF01DE" unicode="&#xf01de;" horiz-adv-x="425" 
d="M487 740v-77h-156v-242q0 -100 -34.5 -149.5t-117.5 -49.5q-160 0 -154 196h85q0 -59 13 -89t57 -30q46 0 58 37q10 28 10 84v243h-284v77h523zM184 117q24 0 41.5 -17.5t17.5 -41.5t-17.5 -41.5t-41.5 -17.5t-41 17.5t-17 41.5t17 41.5t41 17.5z" />
    <glyph glyph-name="uF01DF" unicode="&#xf01df;" horiz-adv-x="545" 
d="M-36 740h757v-77h-757v77zM720 514v-74h-255v-74q0 -117 -37 -185q-41 -77 -160 -77q-122 0 -164 79q-36 69 -36 183v148h86v-125q0 -137 26 -171q29 -37 88 -37q60 0 87 37q21 30 24 102q1 24 1 69v125h340zM270 27q24 0 41.5 -17.5t17.5 -41.5t-17.5 -41.5t-41.5 -17.5
t-41 17.5t-17 41.5t17 41.5t41 17.5z" />
    <glyph glyph-name="uF01E0" unicode="&#xf01e0;" horiz-adv-x="728" 
d="M937 663h-395v-206q54 83 170 83q97 0 155.5 -61.5t57.5 -161.5h-82q0 70 -38.5 108t-109.5 38t-112 -47.5t-41 -122.5v-293h-86v312q-49 -79 -153 -79t-156.5 68.5t-52.5 180.5v181h-132v77h975v-77zM180 663v-181q0 -85 32 -128.5t102 -43.5t106 49t36 122v182h-276z
M269 126q24 0 41.5 -17.5t17.5 -41.5t-17.5 -41.5t-41.5 -17.5t-41 17.5t-17 41.5t17 41.5t41 17.5z" />
    <glyph glyph-name="uF01E1" unicode="&#xf01e1;" horiz-adv-x="1734" 
d="M1396 237v196h207v-196h-207zM1396 475v196h207v-196h-207zM1146 0v671h208v-671h-208zM896 475v196h208v-196h-208zM647 0v671h207v-671h-207zM397 475v196h207v-196h-207zM147 0v671h207v-671h-207z" />
    <glyph glyph-name="uF01E2" unicode="&#xf01e2;" horiz-adv-x="0" 
d="M-178 839q0 205 167 205q76 0 117 -46t41 -124h-73q-3 99 -85 99q-48 0 -68.5 -33t-20.5 -101v-126h-77q-1 26 -1 126z" />
    <glyph glyph-name="uF01E3" unicode="&#xf01e3;" horiz-adv-x="49" 
d="M318 663h-354v77h354v-77zM226 378q-99 0 -168.5 48t-70.5 150h72q3 -69 51.5 -99t117.5 -30q31 0 69 6l21 -61q-39 -14 -92 -14z" />
    <glyph glyph-name="uF01E4" unicode="&#xf01e4;" horiz-adv-x="0" 
d="M-33 -106h-96l-118 149l-122 -149h-96l169 185h100z" />
    <glyph glyph-name="uF01E5" unicode="&#xf01e5;" horiz-adv-x="1011" 
d="M1047 663h-487v-179q50 81 155.5 81t165 -65t59.5 -173t-78.5 -169.5t-199.5 -47.5l-1 74q87 -8 140 30.5t53 114.5t-39 117.5t-111 41.5t-108 -45.5t-36 -127.5v-315h-84v183l-189 -214h-101q79 81 135 139h-10q-101 0 -163.5 62t-62.5 163t61 166t168.5 65t161.5 -82
v181h-512v77h1083v-77zM211 446.5q-40 -40.5 -40 -114t40.5 -114t113.5 -40.5t112 41.5t39 113.5t-40.5 113t-112.5 41t-112 -40.5z" />
    <glyph glyph-name="uF01E6" unicode="&#xf01e6;" horiz-adv-x="916" 
d="M-36 740h988v-77h-131v-663h-84v203q-48 -64 -147 -64q-26 0 -52 6l-226 -248h-96v4q10 10 130 132q-7 -1 -21 -1q-114 0 -178.5 59.5t-64.5 173.5v142h33q54 0 80 4t44.5 23.5t23 52.5t4.5 97v79h-303v77zM168 262q0 -82 40 -119.5t123 -37.5q110 0 145 67
q-85 56 -85 172q0 89 55.5 146.5t150.5 57.5t140 -60v175h-385v-80q0 -140 -37.5 -189.5t-146.5 -52.5v-79zM510.5 248.5q36.5 -35.5 96 -35.5t95 35.5t35.5 95.5t-35 95t-95 35t-96.5 -35t-36.5 -95t36.5 -95.5z" />
    <glyph glyph-name="uF01E7" unicode="&#xf01e7;" horiz-adv-x="714" 
d="M-36 740h786v-77h-131v-663h-86v272l-242 -273h-103q270 290 345 370v294h-202v-242q0 -100 -34.5 -149.5t-117.5 -49.5q-160 0 -154 196h85q0 -59 13 -89t57 -30q46 0 58 37q10 28 10 84v243h-284v77z" />
    <glyph glyph-name="uF01E8" unicode="&#xf01e8;" horiz-adv-x="695" 
d="M731 740v-77h-131v-663h-86v203l-208 -237h-103l145 151q-22 -3 -47 -3q-96 0 -161 44.5t-65 130.5q0 54 28 92.5t74 57.5v6q-50 23 -67.5 66.5t-17.5 122.5v29h-128v77h767zM514 356v307h-335v-29q0 -87 26 -121.5t104 -34.5h36v-75h-36q-66 0 -107 -28t-41 -84
t44.5 -82t120 -26t132 47.5t56.5 125.5z" />
    <glyph glyph-name="uF01E9" unicode="&#xf01e9;" horiz-adv-x="660" 
d="M-36 740h732v-77h-226v-181h-162q-61 0 -96 -16.5t-35 -64.5t32.5 -64.5t82.5 -16.5t79.5 -3t60.5 -13.5t52 -27.5q47 -39 47 -119q0 -57 -34.5 -99t-95.5 -59l137 -156h-96l-114 145h-7l-119 -145h-96l139 153q-78 17 -123 69t-46 132h85q8 -135 157 -135q60 0 94 24.5
t34 74.5q0 58 -44 74q-34 13 -87.5 13t-90 6.5t-68.5 23.5q-66 34 -66 127q0 56 31 91.5t75 48t101 12.5h87v106h-420v77zM533.5 418.5q16.5 16.5 40 16.5t40 -16.5t16.5 -40t-16.5 -40.5t-40 -17t-40 17t-16.5 40.5t16.5 40z" />
    <glyph glyph-name="uF01EA" unicode="&#xf01ea;" horiz-adv-x="727" 
d="M-36 740h799v-77h-131v-663h-86v190l-198 -235h-103l142 150q-7 -1 -20 -1q-97 0 -161.5 54.5t-64.5 150t75 146.5h-167v72h364v-72h-29q-72 0 -115.5 -38t-43.5 -103.5t43.5 -102t114 -36.5t117 50.5t46.5 124.5v313h-582v77z" />
    <glyph glyph-name="uF01EB" unicode="&#xf01eb;" horiz-adv-x="820" 
d="M856 663h-215v-103q61 -18 94.5 -74.5t33.5 -141.5q0 -119 -66 -197.5t-185 -103.5l140 -159h-96l-118 149l-122 -149h-96l137 150q-124 8 -203.5 61t-79.5 152q0 60 30.5 102t83.5 62v6q-57 19 -76 67t-19 141v38h-135v77h892v-77zM557 663h-372v-43q0 -96 26 -133
t111 -37h13v-75h-14q-71 0 -113.5 -31.5t-42.5 -88t37 -90t89 -45.5t118 -12q131 0 207 60t76 182q0 74 -28.5 109.5t-70 35.5t-63 -13.5t-36 -58t-13.5 -123.5h-77q-4 127 34.5 191t118.5 74v98z" />
    <glyph glyph-name="uF01EC" unicode="&#xf01ec;" horiz-adv-x="827" 
d="M-36 740h899v-77h-131v-663h-86v238l-222 -268h-104q247 278 326 368v102h-181v-40q0 -118 -37 -186q-41 -77 -160 -77q-121 0 -164 79q-36 69 -36 184v114h86v-91q0 -138 26 -171q29 -38 88 -38q60 0 87 38q21 29 24 102q1 24 1 69v91h266v149h-682v77z" />
    <glyph glyph-name="uF01ED" unicode="&#xf01ed;" horiz-adv-x="860" 
d="M896 740v-77h-131v-663h-86v177l-162 -278h-95l244 378h-188q18 -10 29.5 -35.5t11.5 -55.5q0 -68 -44 -113.5t-131 -45.5q-50 0 -94.5 20.5t-66.5 51.5v-135h-83v261h83q3 -56 43.5 -90.5t102.5 -34.5q110 0 110 96q0 48 -27.5 63.5t-84.5 15.5t-92.5 6t-67.5 21
q-66 31 -66 121q0 86 66 117q58 27 149 27h79v96h-431v77h932zM679 346v317h-198v-144h-2l2 -3v-24h-157q-104 0 -126 -32q-11 -16 -11 -40q0 -45 32 -59.5t93 -14.5h367z" />
    <glyph glyph-name="uF01EE" unicode="&#xf01ee;" horiz-adv-x="842" 
d="M-36 740h914v-77h-130v-663h-86v200l-170 -215h-103q205 231 273 309v11h-145q-9 -91 -67.5 -147.5t-158 -56.5t-157 49.5t-70.5 120.5h86q10 -39 45.5 -66t101 -27t102 43t36.5 119t-36.5 119.5t-102 43.5t-101 -27t-45.5 -66h-86q13 71 70 120t156.5 49t157 -54.5
t69.5 -143.5h145v282h-698v77z" />
    <glyph glyph-name="uF01EF" unicode="&#xf01ef;" horiz-adv-x="660" 
d="M447 485h-68q-102 -1 -161.5 -47t-59.5 -133.5t51 -136.5t135 -49t132 49t48 134h85q0 -95 -47 -159.5t-130 -88.5l142 -161h-96l-118 149l-122 -149h-96l141 154q-95 17 -152.5 85t-57.5 168q0 122 79.5 190t209.5 71v102h-398v77h732v-77h-249v-178z" />
    <glyph glyph-name="uF01F0" unicode="&#xf01f0;" horiz-adv-x="669" 
d="M705 663h-319v-106q100 -12 163 -80.5t63 -167t-51.5 -164t-137.5 -87.5l140 -159h-96l-118 149l-122 -149h-96l143 156q-90 20 -144.5 86.5t-54.5 166t62.5 168t162.5 81.5v106h-336v77h741v-77zM526 304q0 81 -50.5 131t-132.5 50t-132.5 -50t-50.5 -131t50.5 -131
t132.5 -50t132.5 50t50.5 131z" />
    <glyph glyph-name="uF01F1" unicode="&#xf01f1;" horiz-adv-x="582" 
d="M470 482h-162q-61 0 -96 -16.5t-35 -64.5t32.5 -64.5t82.5 -16.5t79.5 -3t60.5 -13.5t52 -27.5q47 -39 47 -119q0 -56 -33.5 -98t-93.5 -60l142 -161h-96l-118 149l-122 -149h-96l142 155q-82 15 -130 68t-50 136h85q8 -135 157 -135q60 0 94 24.5t34 74.5q0 58 -44 74
q-34 13 -87.5 13t-90 6.5t-68.5 23.5q-66 34 -66 127q0 56 31 91.5t75 48t101 12.5h87v106h-420v77h654v-77h-148v-181z" />
    <glyph glyph-name="uF01F2" unicode="&#xf01f2;" horiz-adv-x="635" 
d="M475 495h-73q-113 0 -179 -53.5t-66 -153.5t59.5 -152t156.5 -52q69 0 105.5 31.5t36.5 79.5q0 102 -90 102q-88 0 -88 -104h-79q-1 79 41 127.5t122 48.5t128.5 -45t48.5 -117.5t-37 -120t-101 -66.5l142 -161h-96l-117 148h-1l-122 -148h-96l140 153
q-107 17 -172.5 88.5t-65.5 182.5q0 141 88.5 213t228.5 74v93h-425v77h707v-77h-196v-168z" />
    <glyph glyph-name="uF01F3" unicode="&#xf01f3;" horiz-adv-x="859" 
d="M-36 740h931v-77h-131v-663h-86v271l-217 -271h-103q250 291 320 373v290h-177v-244q0 -240 -201.5 -240t-201.5 240v244h-134v77zM416 416v247h-233v-247q0 -79 25 -119.5t92 -40.5t91.5 40t24.5 120z" />
    <glyph glyph-name="uF01F4" unicode="&#xf01f4;" horiz-adv-x="666" 
d="M309 559q120 0 176 -95v199h-505v77h722v-77h-131v-663h-86v254l-243 -255h-114v5q329 329 350 347q-12 60 -52 95.5t-108.5 35.5t-108 -48.5t-44.5 -129.5h-85q5 115 65 185t164 70z" />
    <glyph glyph-name="uF01F5" unicode="&#xf01f5;" horiz-adv-x="759" 
d="M578 740h217v-77h-131v-663h-86v198l-261 -249h-111v6l166 144h-4q-148 0 -220 97.5t-52 253.5q50 -2 106.5 -2t98 8.5t67.5 36t26 76.5t-26.5 76.5t-76 27.5t-76 -33.5t-24.5 -90.5h-82q-3 90 48 145t135 55t135.5 -50t51.5 -133q0 -114 -89 -153q-79 -35 -207 -33
q-5 -94 45 -151.5t142.5 -57.5t150 55.5t57.5 141.5v372z" />
    <glyph glyph-name="uF01F6" unicode="&#xf01f6;" horiz-adv-x="596" 
d="M484 483h-114q-165 0 -205 -81q-16 -33 -16 -81q0 -75 43.5 -113t111.5 -38q140 0 140 124h78v-294h-86v150l-170 -215h-97q85 98 142 163h-10q-108 0 -173.5 59.5t-65.5 173.5t79.5 172t216.5 58h40v102h-434v77h668v-77h-148v-180z" />
    <glyph glyph-name="uF01F7" unicode="&#xf01f7;" horiz-adv-x="719" 
d="M755 740v-77h-130v-663h-86v198l-226 -251h-100l159 165q-21 -3 -45 -3q-95 0 -161 44.5t-66 128.5q0 104 105 143v6q-47 18 -77.5 58.5t-30.5 104.5t47.5 110t126 46t123 -51t39.5 -133h-76q2 49 -20 78t-65.5 29t-68 -24t-24.5 -66q0 -61 43 -90.5t113 -29.5h51v-74
h-46q-68 0 -111 -24.5t-43 -78.5t45.5 -80.5t119 -26.5t131 48.5t57.5 127.5v385h216z" />
    <glyph glyph-name="uF01F8" unicode="&#xf01f8;" horiz-adv-x="787" 
d="M-36 740h859v-77h-130v-663h-86v199l-173 -219h-99q203 234 272 314v137h-212q63 -38 63 -124.5t-53 -138t-141 -51.5t-146.5 53.5t-58.5 143t59 140.5t169 51h320v158h-643v77zM176.5 223q35.5 -30 86 -30t83.5 31.5t33 86t-31.5 86.5t-84.5 32t-87.5 -31t-34.5 -88
t35.5 -87z" />
    <glyph glyph-name="uF01F9" unicode="&#xf01f9;" horiz-adv-x="654" 
d="M-36 740h725v-77h-130v-663h-86v281l-250 -287h-102q117 128 192 210h-9q-103 0 -158.5 67.5t-55.5 178.5v213h-126v77zM176 663v-211q0 -175 149 -175q66 0 107 46t41 117v223h-297z" />
    <glyph glyph-name="uF01FA" unicode="&#xf01fa;" horiz-adv-x="990" 
d="M1026 663h-482v-206q54 83 170 83q97 0 156 -61.5t59 -164t-72.5 -162t-189.5 -50.5l-1 74q80 -7 129 31t49 109t-38 109t-109 38t-112 -47.5t-41 -122.5v-293h-86v310l-243 -316h-99l203 245q-5 -1 -17 -1q-102 0 -154 66.5t-52 177.5v181h-132v77h1062v-77zM182 663
v-181q0 -85 32 -128.5t102 -43.5t106 49t36 122v182h-276z" />
    <glyph glyph-name="uF01FB" unicode="&#xf01fb;" horiz-adv-x="672" 
d="M-36 740h744v-77h-131v-663h-84v171l-194 -226h-98v5l137 143q-20 -2 -31 -2q-109 0 -180 66.5t-71 174t71.5 176.5t179.5 69q125 0 186 -93v179h-529v77zM495 331q0 77 -49.5 125t-123.5 48t-120 -36l276 -215q17 36 17 78zM138 331q0 -80 50.5 -126.5t128 -46.5
t125.5 45l-281 220q-23 -40 -23 -92z" />
    <glyph glyph-name="uF01FC" unicode="&#xf01fc;" horiz-adv-x="808" 
d="M843 740v-77h-135v-663h-86v202l-229 -263h-99q259 277 328 353v93h-164v-59q0 -220 -181 -220q-80 0 -134 50t-54 128q0 174 233 174h53v77q0 64 -19 99t-69 35t-68.5 -35.5t-18.5 -102.5h-85q0 215 171.5 215t171.5 -212v-76h164v282h221zM375 324v61h-58
q-70 0 -107.5 -23t-37.5 -74t29 -79t80 -28t72.5 35.5t21.5 107.5z" />
    <glyph glyph-name="uF01FD" unicode="&#xf01fd;" horiz-adv-x="783" 
d="M819 740v-77h-130v-663h-86v213l-239 -271h-99q286 304 338 360v82h-185v-59q0 -219 -181 -219q-80 0 -134 50t-54 128q0 174 233 174h53v205h-371v77h855zM335 324v60h-58q-70 0 -107.5 -22.5t-37.5 -73.5t29 -79t80 -28t72.5 35.5t21.5 107.5zM603 458v205h-185v-205
h185z" />
    <glyph glyph-name="uF01FE" unicode="&#xf01fe;" horiz-adv-x="726" 
d="M-36 740h798v-77h-130v-663h-86v212l-234 -264h-100l158 164q-9 -1 -27 -1q-140 0 -211 90t-63 246q97 0 133 19q22 12 33.5 23t16.5 37q8 35 8 106v31h-296v77zM345 663v-33q0 -63 -6 -102t-25 -72.5t-56.5 -49.5t-98.5 -20q-1 -92 50.5 -147.5t142.5 -55.5t142.5 60.5
t51.5 157.5v262h-201z" />
    <glyph glyph-name="uF01FF" unicode="&#xf01ff;" horiz-adv-x="907" 
d="M-36 740h979v-77h-265v-155q79 -14 119 -76t40 -161q0 -124 -74 -193.5t-199 -58.5v78q92 -7 139.5 40t47.5 135q0 162 -122 162q-137 0 -128 -208h-82q9 208 -128 208q-123 0 -123 -162q0 -88 47.5 -135t139.5 -40v-78q-125 -11 -199 58.5t-74 188.5t51 182.5t153 63.5
q65 0 110.5 -31.5t63.5 -89.5q14 48 48.5 77.5t84.5 36.5v158h-629v77zM707 -27l163 -185h-96l-118 149l-122 -149h-96l169 185h100z" />
    <glyph glyph-name="uF0200" unicode="&#xf0200;" horiz-adv-x="648" 
d="M-36 740h720v-77h-131v-663h-84v183l-199 -231h-97v4q1 2 141 144q-9 -1 -28 -1q-102 0 -167 65t-65 168t65.5 170t166.5 67q125 0 183 -88v182h-505v77zM469 331v1q0 74 -45 117.5t-120 43.5t-120 -43.5t-45 -118t45 -118t120 -43.5t120 43.5t45 117.5z" />
    <glyph glyph-name="uF0201" unicode="&#xf0201;" horiz-adv-x="776" 
d="M597 740h214v-77h-130v-663h-84v206l-26 12l-214 -220h-101v4l247 250l-166 82q-137 -114 -166 -135h-112v6q14 10 210 165q-78 46 -116.5 94t-38.5 111q0 79 56 128.5t142 49.5t140 -49t54 -129q0 -95 -109 -192q81 -38 200 -92v449zM227.5 647.5q-30.5 -31.5 -30.5 -79
t33 -82t98 -69.5q97 80 97 151q0 51 -30 81t-83.5 30t-84 -31.5z" />
    <glyph glyph-name="uF0202" unicode="&#xf0202;" horiz-adv-x="655" 
d="M-36 740h727v-77h-131v-663h-86v283l-263 -305h-99l209 229q-5 -1 -17 -1q-107 0 -160.5 63t-53.5 173v221h-126v77zM474 663h-298v-5l297 -236q1 4 1 13v228zM176 448q0 -176 150 -176q91 0 131 84l-281 224v-132z" />
    <glyph glyph-name="uF0203" unicode="&#xf0203;" horiz-adv-x="806" 
d="M76 420l53 -1q22 0 58 2l1 3h25q61 9 91 44q31 37 31 195h-377v77h884v-77h-130v-663h-84v271l-97 -146h-90q136 170 181 227h-461v-131q0 -69 10 -97.5t28 -39t53.5 -10.5t52.5 29.5t17 92.5h80q-1 -97 -38 -147t-118 -50q-170 0 -170 223v198zM628 424v239h-208
q-1 -181 -52 -239h260z" />
    <glyph glyph-name="uF0204" unicode="&#xf0204;" horiz-adv-x="610" 
d="M484 663v-153h-2l2 -3v-24h-174q-53 0 -85.5 -19.5t-32.5 -59.5q0 -54 63 -77q28 7 65 7q80 0 136 -38t76 -102l-141 -129h-96l149 144q-34 53 -123 53q-68 0 -109 -40t-41 -104t42 -103t112 -39q100 0 125 74h84q-11 -64 -65 -106t-151 -42t-163.5 61.5t-66.5 156.5
q0 113 86 172q-69 42 -69 115.5t52.5 112t144.5 38.5h96v105h-434v77h682v-77h-162z" />
    <glyph glyph-name="uF0205" unicode="&#xf0205;" horiz-adv-x="939" 
d="M975 663h-277v-147q93 -8 152 -70.5t59 -151.5t-46 -148t-121 -79l139 -157h-96l-118 149l-122 -149h-96l148 162q-82 29 -118 107q-26 -58 -78.5 -89t-116.5 -31q-102 0 -168 64t-66 165t66.5 165t167.5 64q65 0 117 -31t78 -90q38 88 134 113v154h-649v77h1011v-77z
M288 137q68 0 108 42t40 109t-40 109t-108 42t-110.5 -41.5t-42.5 -109t42.5 -109.5t110.5 -42zM824 288q0 68 -42.5 109.5t-109.5 41.5t-108 -42t-41 -109t41 -109t109 -42t109.5 41.5t41.5 109.5z" />
    <glyph glyph-name="uF0206" unicode="&#xf0206;" horiz-adv-x="1011" 
d="M1047 663h-487v-179q50 81 155.5 81t165 -65t59.5 -173t-78.5 -169.5t-199.5 -47.5l-1 74q87 -8 140 30.5t53 114.5t-39 117.5t-111 41.5t-108 -45.5t-36 -127.5v-315h-84v183l-189 -214h-101q79 81 135 139h-10q-101 0 -163.5 62t-62.5 163t61 166t168.5 65t161.5 -82
v181h-512v77h1083v-77zM211 446.5q-40 -40.5 -40 -114t40.5 -114t113.5 -40.5t112 41.5t39 113.5t-40.5 113t-112.5 41t-112 -40.5zM108 107q23 0 39.5 -16.5t16.5 -39t-16.5 -39t-39 -16.5t-39 16t-16.5 39t16 39.5t39 16.5z" />
    <glyph glyph-name="uF0207" unicode="&#xf0207;" horiz-adv-x="916" 
d="M-36 740h988v-77h-131v-663h-84v203q-48 -64 -147 -64q-26 0 -52 6l-226 -248h-96v4q10 10 130 132q-7 -1 -21 -1q-114 0 -178.5 59.5t-64.5 173.5v142h33q54 0 80 4t44.5 23.5t23 52.5t4.5 97v79h-303v77zM168 262q0 -82 40 -119.5t123 -37.5q110 0 145 67
q-85 56 -85 172q0 89 55.5 146.5t150.5 57.5t140 -60v175h-385v-80q0 -140 -37.5 -189.5t-146.5 -52.5v-79zM510.5 248.5q36.5 -35.5 96 -35.5t95 35.5t35.5 95.5t-35 95t-95 35t-96.5 -35t-36.5 -95t36.5 -95.5zM84 37q24 0 41.5 -17.5t17.5 -41.5t-17.5 -41.5t-41.5 -17.5
t-41 17.5t-17 41.5t17 41.5t41 17.5z" />
    <glyph glyph-name="uF0208" unicode="&#xf0208;" horiz-adv-x="714" 
d="M-36 740h786v-77h-131v-663h-86v272l-242 -273h-103q270 290 345 370v294h-202v-242q0 -100 -34.5 -149.5t-117.5 -49.5q-160 0 -154 196h85q0 -59 13 -89t57 -30q46 0 58 37q10 28 10 84v243h-284v77zM77 169q24 0 41.5 -17.5t17.5 -41.5t-17.5 -41.5t-41.5 -17.5
t-41 17.5t-17 41.5t17 41.5t41 17.5z" />
    <glyph glyph-name="uF0209" unicode="&#xf0209;" horiz-adv-x="827" 
d="M-36 740h899v-77h-131v-663h-86v238l-222 -268h-104q247 278 326 368v102h-181v-40q0 -118 -37 -186q-41 -77 -160 -77q-121 0 -164 79q-36 69 -36 184v114h86v-91q0 -138 26 -171q29 -38 88 -38q60 0 87 38q21 29 24 102q1 24 1 69v91h266v149h-682v77zM115 60
q24 0 41.5 -17.5t17.5 -41.5t-17.5 -41.5t-41.5 -17.5t-41 17.5t-17 41.5t17 41.5t41 17.5z" />
    <glyph glyph-name="uF020A" unicode="&#xf020a;" horiz-adv-x="990" 
d="M1026 663h-482v-206q54 83 170 83q97 0 156 -61.5t59 -164t-72.5 -162t-189.5 -50.5l-1 74q80 -7 129 31t49 109t-38 109t-109 38t-112 -47.5t-41 -122.5v-293h-86v310l-243 -316h-99l203 245q-5 -1 -17 -1q-102 0 -154 66.5t-52 177.5v181h-132v77h1062v-77zM182 663
v-181q0 -85 32 -128.5t102 -43.5t106 49t36 122v182h-276zM153 168q0 -23 -17 -40t-39.5 -17t-39 17t-16.5 40t16.5 39.5t39 16.5t39.5 -16.5t17 -39.5z" />
    <glyph glyph-name="uF020B" unicode="&#xf020b;" horiz-adv-x="764" 
d="M940 663h-380v-179q50 81 155.5 81t164.5 -65t59 -168h-85q0 73 -39 114.5t-111 41.5t-108 -45.5t-36 -127.5v-315h-84v183l-192 -216h-101q81 83 138 141h-10q-101 0 -163.5 62t-62.5 163t61 166t168.5 65t161.5 -82v181h-512v77h976v-77zM211 446.5q-40 -40.5 -40 -114
t40.5 -114t113.5 -40.5t112 41.5t39 113.5t-40.5 113t-112.5 41t-112 -40.5z" />
    <glyph glyph-name="uF020C" unicode="&#xf020c;" horiz-adv-x="652" 
d="M168 262q0 -82 40 -119.5t123 -37.5q113 0 146 69q-86 54 -86 170q0 95 60 149.5t157 54.5t156.5 -54.5t59.5 -150t-59.5 -150t-156.5 -54.5q-33 0 -67 8l-208 -234h-101v5q21 21 122 115q-10 -1 -29 -1q-114 0 -178.5 59.5t-64.5 173.5v142h33q74 0 109 15q20 9 28 30
q15 43 15 132v79h-305v77h861v-77h-471v-80q0 -140 -37.5 -189.5t-146.5 -52.5v-79zM510.5 248.5q36.5 -35.5 97.5 -35.5t97.5 35.5t36.5 95.5t-36.5 95t-97.5 35t-97.5 -35t-36.5 -95t36.5 -95.5z" />
    <glyph glyph-name="uF020D" unicode="&#xf020d;" horiz-adv-x="439" 
d="M-36 740h591v-77h-224v-242q0 -100 -34.5 -149.5t-117.5 -49.5q-160 0 -154 196h85q0 -59 13 -89t57 -30q46 0 58 37q10 28 10 84v243h-284v77zM291 -1h-103q365 391 367 394v-94z" />
    <glyph glyph-name="uF020E" unicode="&#xf020e;" horiz-adv-x="401" 
d="M594 663h-415v-29q0 -87 26 -121.5t104 -34.5h36v-75h-36q-66 0 -107 -28t-41 -84.5t48 -82t128 -25.5t129 44.5t49 128.5h76q0 -120 -72 -186l-210 -208h-101v4q28 22 157 143q-24 -2 -36 -2q-108 0 -181 46t-73 136q0 54 28 92.5t74 57.5v6q-50 23 -67.5 66.5
t-17.5 122.5v29h-128v77h630v-77z" />
    <glyph glyph-name="uF020F" unicode="&#xf020f;" horiz-adv-x="660" 
d="M-36 740h732v-77h-226v-181h-162q-61 0 -96 -16.5t-35 -64.5t32.5 -64.5t82.5 -16.5t79.5 -3t60.5 -13.5t52 -27.5q47 -39 47 -119q0 -57 -34.5 -99t-95.5 -59l137 -156h-96l-114 145h-7l-119 -145h-96l139 153q-78 17 -123 69t-46 132h85q8 -135 157 -135q60 0 94 24.5
t34 74.5q0 58 -44 74q-34 13 -87.5 13t-90 6.5t-68.5 23.5q-66 34 -66 127q0 56 31 91.5t75 48t101 12.5h87v106h-420v77zM533.5 418.5q16.5 16.5 40 16.5t40 -16.5t16.5 -40t-16.5 -40.5t-40 -17t-40 17t-16.5 40.5t16.5 40zM282 -170h84l115 -166h-94z" />
    <glyph glyph-name="uF0210" unicode="&#xf0210;" horiz-adv-x="455" 
d="M-36 740h664v-77h-664v77zM413 455h-29q-72 0 -115.5 -38t-43.5 -104t43.5 -102t120.5 -36t117 48.5t40 129.5h79q0 -126 -74 -195l-195 -197h-101v6q4 3 145 132h-15q-103 0 -173 56t-70 154.5t76 145.5h-169v72h364v-72z" />
    <glyph glyph-name="uF0211" unicode="&#xf0211;" horiz-adv-x="820" 
d="M856 663h-671v-43q0 -96 26 -133t111 -37h13v-75h-14q-71 0 -113.5 -31.5t-42.5 -88t37 -90t89 -45.5t118 -12q131 0 207 60t76 182q0 74 -28.5 109t-79 35t-78 -40t-25.5 -154h-77q-4 137 42 201t140 66q86 0 134.5 -60.5t48.5 -169.5t-63 -187.5t-178 -104.5l142 -161
h-96l-118 149l-122 -149h-96l136 149q-128 7 -211 59.5t-83 154.5q0 60 30.5 102t83.5 62v6q-57 19 -76 67t-19 141v38h-135v77h892v-77z" />
    <glyph glyph-name="uF0212" unicode="&#xf0212;" horiz-adv-x="557" 
d="M-36 740h757v-77h-757v77zM704 514v-74h-239v-50q0 -117 -37 -185q-41 -77 -160 -77q-122 0 -164 79q-36 69 -36 183v124h86v-101q0 -138 26 -171q29 -38 88 -38q60 0 87 38q21 29 24 102q1 24 1 69v101h324zM450 -13h-102q354 397 356 400v-90z" />
    <glyph glyph-name="uF0213" unicode="&#xf0213;" horiz-adv-x="573" 
d="M299 346h422v-151l-204 -296h-101q233 302 292 378h-233q19 -10 33 -34.5t14 -53.5q0 -69 -48 -114.5t-137 -45.5q-50 0 -91 19.5t-63 50.5v-135h-83v261h83q3 -56 41 -89.5t100 -33.5q115 0 115 94q0 56 -37 69q-31 11 -78 11t-74.5 2.5t-57.5 11.5t-48 24
q-43 36 -43 109q0 87 65 118q54 26 142 26h87v96h-431v77h743v-77h-226v-171h-162q-103 0 -123 -31q-9 -15 -9 -40q0 -46 28 -60.5t84 -14.5z" />
    <glyph glyph-name="uF0214" unicode="&#xf0214;" horiz-adv-x="556" 
d="M694 381v-141l-199 -255h-103q213 242 281 320h-156q-9 -91 -67.5 -147.5t-158 -56.5t-157 49.5t-70.5 120.5h86q10 -39 45.5 -66t101 -27t102 43t36.5 119t-36.5 119.5t-102 43.5t-101 -27t-45.5 -66h-86q13 71 70 120t156.5 49t157 -54.5t69.5 -143.5h177zM689 740v-77
h-725v77h725z" />
    <glyph glyph-name="uF0215" unicode="&#xf0215;" horiz-adv-x="660" 
d="M447 485h-68q-102 -1 -161.5 -47t-59.5 -133.5t51 -136.5t135 -49t132 49t48 134h85q0 -94 -46.5 -159.5t-128.5 -88.5l140 -159h-96l-116 147h-3l-121 -147h-96l139 153q-94 18 -151 85t-57 167q0 122 79.5 190t209.5 71v102h-398v77h732v-77h-249v-178zM315 -102h84
l115 -166h-94z" />
    <glyph glyph-name="uF0216" unicode="&#xf0216;" horiz-adv-x="669" 
d="M705 663h-319v-106q100 -12 163 -80.5t63 -167t-52 -164.5t-138 -87l141 -160h-96l-118 149l-122 -149h-96l144 157q-91 20 -145.5 86.5t-54.5 166t62.5 168t162.5 81.5v106h-336v77h741v-77zM526 304q0 81 -50.5 131t-132.5 50t-132.5 -50t-50.5 -131t50.5 -131
t132.5 -50t132.5 50t50.5 131zM306 -94h84l115 -166h-94z" />
    <glyph glyph-name="uF0217" unicode="&#xf0217;" horiz-adv-x="582" 
d="M470 482h-162q-61 0 -96 -16.5t-35 -64.5t32.5 -64.5t82.5 -16.5t79.5 -3t60.5 -13.5t52 -27.5q47 -39 47 -119q0 -56 -33.5 -98t-93.5 -60l142 -161h-96l-118 149l-122 -149h-96l142 155q-82 15 -130 68t-50 136h85q8 -135 157 -135q60 0 94 24.5t34 74.5q0 58 -44 74
q-34 13 -87.5 13t-90 6.5t-68.5 23.5q-66 34 -66 127q0 56 31 91.5t75 48t101 12.5h87v106h-420v77h654v-77h-148v-181zM292 -156h84l115 -166h-94z" />
    <glyph glyph-name="uF0218" unicode="&#xf0218;" horiz-adv-x="635" 
d="M475 495h-73q-113 0 -179 -53.5t-66 -153.5t59.5 -152t156.5 -52q69 0 105.5 31.5t36.5 79.5q0 102 -90 102q-88 0 -88 -104h-79q-1 79 41 127.5t122 48.5t128.5 -45t48.5 -117.5t-37 -120t-101 -66.5l142 -161h-96l-117 148h-1l-122 -148h-96l140 153
q-107 17 -172.5 88.5t-65.5 182.5q0 141 88.5 213t228.5 74v93h-425v77h707v-77h-196v-168zM348 -141h84l115 -166h-94z" />
    <glyph glyph-name="uF0219" unicode="&#xf0219;" horiz-adv-x="589" 
d="M-36 740h744v-77h-207v-244q0 -240 -201.5 -240t-201.5 240v244h-134v77zM416 416v247h-233v-247q0 -79 25 -119.5t92 -40.5t91.5 40t24.5 120zM461 0h-103q348 405 350 408v-99z" />
    <glyph glyph-name="uF021A" unicode="&#xf021a;" horiz-adv-x="423" 
d="M556 663h-592v77h592v-77zM327 482q-76 0 -116.5 -48.5t-45.5 -129.5h-85q5 114 66.5 184.5t164.5 70.5t165 -57t81 -166q-86 -101 -315 -337h-106v5l345 342q-32 136 -154 136z" />
    <glyph glyph-name="uF021B" unicode="&#xf021b;" horiz-adv-x="478" 
d="M579 356h78q0 -108 -66 -179l-215 -212h-101v4q1 1 21 19q57 50 123 109q-22 -2 -35 -2q-153 0 -230 98t-58 257q50 -2 106.5 -2t98 8.5t67.5 36t26 76.5t-26.5 76.5t-76 27.5t-76 -33.5t-24.5 -90.5h-82q-3 90 48 145t135 55t135.5 -50t51.5 -133q0 -114 -89 -153
q-79 -35 -207 -33q-5 -96 47.5 -152t147.5 -56t148 49t53 135z" />
    <glyph glyph-name="uF021C" unicode="&#xf021c;" horiz-adv-x="596" 
d="M527 -64l115 -166h-94l-105 166h84zM522 0h-86v150l-170 -215h-97q85 98 142 163h-10q-108 0 -173.5 59.5t-65.5 173.5t79.5 172t216.5 58h40v102h-434v77h668v-77h-148v-180h-114q-165 0 -205 -81q-16 -33 -16 -81q0 -75 43.5 -113t111.5 -38q140 0 140 124h78v-294z
" />
    <glyph glyph-name="uF021D" unicode="&#xf021d;" horiz-adv-x="420" 
d="M523 355h79q0 -110 -59 -174h1l-200 -212h-101v7q2 1 141 131q-24 -3 -48 -3q-101 0 -172.5 45.5t-71.5 133.5q0 103 105 142v6q-47 18 -77.5 58.5t-30.5 104.5t47.5 110t126 46t123 -51t39.5 -133h-76q2 49 -20 78t-65.5 29t-68 -24t-24.5 -66q0 -61 43 -90.5t114 -29.5
h50v-74h-46q-67 0 -110.5 -24.5t-43.5 -78.5t46.5 -80.5t122.5 -26.5t126 43t50 133z" />
    <glyph glyph-name="uF021E" unicode="&#xf021e;" horiz-adv-x="501" 
d="M659 663h-695v77h695v-77zM659 505v-74h-264q63 -38 63 -124.5t-53 -138t-141 -51.5t-146.5 53.5t-58.5 143t59 140.5t169 51h372zM347.5 397q-31.5 32 -84.5 32t-87.5 -31t-34.5 -88t35.5 -87t86 -30t83.5 31.5t33 86t-31.5 86.5zM659 345v-90l-223 -275h-101
q322 361 324 365z" />
    <glyph glyph-name="uF021F" unicode="&#xf021f;" horiz-adv-x="377" 
d="M557 663h-381v-211q0 -175 148.5 -175t148.5 162h80q0 -116 -65 -178l-255 -267h-103v4l208 204h-13q-117 0 -176 66t-59 182v213h-126v77h593v-77z" />
    <glyph glyph-name="uF0220" unicode="&#xf0220;" horiz-adv-x="751" 
d="M939 663h-395v-206q54 83 170 83q97 0 155.5 -61.5t57.5 -161.5h-82q0 70 -38.5 108t-109.5 38t-112 -47.5t-41 -122.5v-293h-86v310l-243 -316h-101l203 244h-15q-101 0 -153.5 66.5t-52.5 177.5v181h-132v77h975v-77zM182 663v-181q0 -85 32 -128.5t101.5 -43.5
t105 46.5t37.5 117.5v189h-276z" />
    <glyph glyph-name="uF0221" unicode="&#xf0221;" horiz-adv-x="414" 
d="M-36 740h622v-77h-622v77zM321 90q-116 0 -190.5 65t-74.5 176.5t75 178.5t189 67t188 -67.5t74 -173t-68 -171.5l-211 -220h-98v4l150 143q-22 -2 -34 -2zM505 331q0 80 -51 126.5t-128.5 46.5t-123.5 -36l284 -221q19 38 19 84zM138 331q0 -80 50.5 -126.5t130 -46.5
t129.5 41l-287 224q-23 -40 -23 -92z" />
    <glyph glyph-name="uF0222" unicode="&#xf0222;" horiz-adv-x="534" 
d="M460 458h217v-74h-217v-59q0 -220 -181 -220q-80 0 -134 50t-54 128q0 175 233 175h53v77q0 64 -19 99t-69 35t-68.5 -35.5t-18.5 -102.5h-84q-2 215 171 215q171 0 171 -212v-76zM377 324v60h-58q-70 0 -107.5 -23t-37.5 -74t29 -78.5t80 -27.5t72.5 35.5t21.5 107.5z
M457 -25h-105q323 355 325 359v-88z" />
    <glyph glyph-name="uF0223" unicode="&#xf0223;" horiz-adv-x="518" 
d="M792 663h-372v-203h242v-74h-242v-59q0 -219 -181 -219q-80 0 -134 49.5t-54 127.5q0 175 234 175h52v203h-373v77h828v-77zM337 326v60h-58q-70 0 -107.5 -22.5t-37.5 -73.5t29.5 -79t80.5 -28t72 35.5t21 107.5zM429 -25h-105q336 372 338 375v-90z" />
    <glyph glyph-name="uF0224" unicode="&#xf0224;" horiz-adv-x="451" 
d="M345 663v-33q0 -63 -6 -102t-25 -72.5t-56.5 -49.5t-98.5 -20q-2 -92 49.5 -147.5t146 -55.5t142.5 57.5t48 160.5h79q1 -148 -84 -227l-207 -210h-101v5q1 1 157 142q-22 -2 -34 -2q-148 0 -221 89.5t-65 248.5q97 0 133 19q22 12 33.5 23t16.5 37q8 35 8 106v31h-296
v77h661v-77h-280z" />
    <glyph glyph-name="uF0225" unicode="&#xf0225;" horiz-adv-x="907" 
d="M-36 740h979v-77h-265v-155q79 -14 119 -76t40 -161q0 -124 -74 -193.5t-199 -58.5v78q92 -7 139.5 40t47.5 135q0 162 -122 162q-137 0 -128 -208h-82q9 208 -128 208q-123 0 -123 -162q0 -88 47.5 -135t139.5 -40v-78q-125 -11 -199 58.5t-74 188.5t51 182.5t153 63.5
q65 0 110.5 -31.5t63.5 -89.5q14 48 48.5 77.5t84.5 36.5v158h-629v77zM707 -27l163 -185h-96l-118 149l-122 -149h-96l169 185h100zM617 -239h84l115 -166h-94z" />
    <glyph glyph-name="uF0226" unicode="&#xf0226;" horiz-adv-x="378" 
d="M-36 740h590v-77h-590v77zM304 98q-111 0 -180.5 62.5t-69.5 171t69.5 173t179 64.5t178 -64.5t68.5 -170t-66 -169.5l-177 -190h-98v4l125 120q-10 -1 -29 -1zM184 449.5q-45 -43.5 -45 -118t45 -118t120 -43.5t120 43.5t45 118t-45 118t-120 43.5t-120 -43.5z" />
    <glyph glyph-name="uF0227" unicode="&#xf0227;" horiz-adv-x="414" 
d="M32 199v6q67 50 210 165q-78 46 -116.5 94t-38.5 111q0 79 56 128.5t142 49.5t140 -49t54 -129q0 -95 -109 -192q69 -32 176 -80v-85h-1l-211 -220h-101v4l247 248l-170 84q-137 -114 -166 -135h-112zM201 647.5q-31 -31.5 -31 -79t33 -82t98 -69.5q97 80 97 151
q0 51 -29.5 81t-83 30t-84.5 -31.5z" />
    <glyph glyph-name="uF0228" unicode="&#xf0228;" horiz-adv-x="386" 
d="M534 663h-358v-4l356 -280q0 -72 -52 -124l-243 -261h-101v4l204 200h-12q-113 0 -175.5 66t-62.5 181v218h-126v77h570v-77zM176 448q0 -176 152 -176q54 0 87 25t39 64l-278 219v-132z" />
    <glyph glyph-name="uF0229" unicode="&#xf0229;" horiz-adv-x="522" 
d="M76 420l53 -1q29 0 42 1l1 4h41q79 12 100 60.5t22 178.5h-377v77h718v-77h-256q-1 -180 -51 -239h307v-144l-175 -271h-82l250 343h-508v-131q0 -94 20 -119q22 -28 71 -28t65.5 35t15.5 116h81q5 -226 -166.5 -226t-171.5 223v198z" />
    <glyph glyph-name="uF022A" unicode="&#xf022a;" horiz-adv-x="610" 
d="M484 663v-153h-2l2 -3v-24h-174q-53 0 -85.5 -19.5t-32.5 -59.5q0 -54 63 -77q28 7 65 7q80 0 136 -38t76 -102l-141 -129h-96l149 144q-34 53 -123 53q-68 0 -109 -40t-41 -104t42 -103t112 -39q100 0 125 74h84q-11 -64 -65 -106t-151 -42t-163.5 61.5t-66.5 156.5
q0 113 86 172q-69 42 -69 115.5t52.5 112t144.5 38.5h96v105h-434v77h682v-77h-162zM287 -167h84l115 -166h-94z" />
    <glyph glyph-name="uF022B" unicode="&#xf022b;" horiz-adv-x="939" 
d="M-36 740h1011v-77h-1011v77zM284 59q-102 0 -168 64t-66 165t66.5 165t167.5 64q65 0 117 -31t78 -90q25 59 78.5 90t118.5 31q101 0 167 -64t66 -165q0 -79 -41 -136.5t-110 -79.5l142 -162h-96l-118 149l-122 -149h-96l144 158q-94 26 -133 111q-26 -58 -78.5 -89
t-116.5 -31zM288 137q68 0 108 42t40 109t-40 109t-108 42t-110.5 -41.5t-42.5 -109t42.5 -109.5t110.5 -42zM564 179q41 -42 109 -42t109.5 41.5t41.5 109.5t-42.5 109.5t-109.5 41.5t-108 -42t-41 -109t41 -109z" />
    <glyph glyph-name="uF022C" unicode="&#xf022c;" horiz-adv-x="748" 
d="M940 663h-380v-179q50 81 155.5 81t164.5 -65t59 -168h-85q0 73 -39 114.5t-111 41.5t-108 -45.5t-36 -127.5v-315h-84v183l-192 -216h-101q81 83 138 141h-10q-101 0 -163.5 62t-62.5 163t61 166t168.5 65t161.5 -82v181h-512v77h976v-77zM211 446.5q-40 -40.5 -40 -114
t40.5 -114t113.5 -40.5t112 41.5t39 113.5t-40.5 113t-112.5 41t-112 -40.5zM107 118q23 0 39.5 -16.5t16.5 -39t-16.5 -39t-39.5 -16.5t-39 16.5t-16 39t16 39t39 16.5z" />
    <glyph glyph-name="uF022D" unicode="&#xf022d;" horiz-adv-x="651" 
d="M168 262q0 -82 40 -119.5t123 -37.5q113 0 146 69q-86 54 -86 170q0 95 60 149.5t157 54.5t156.5 -54.5t59.5 -150t-59.5 -150t-156.5 -54.5q-33 0 -67 8l-208 -234h-101v5q21 21 122 115q-10 -1 -29 -1q-114 0 -178.5 59.5t-64.5 173.5v142h33q74 0 109 15q20 9 28 30
q15 43 15 132v79h-305v77h861v-77h-471v-80q0 -140 -37.5 -189.5t-146.5 -52.5v-79zM510.5 248.5q36.5 -35.5 97.5 -35.5t97.5 35.5t36.5 95.5t-36.5 95t-97.5 35t-97.5 -35t-36.5 -95t36.5 -95.5zM97 42q24 0 41.5 -17.5t17.5 -41.5t-17.5 -41.5t-41.5 -17.5t-41 17.5
t-17 41.5t17 41.5t41 17.5z" />
    <glyph glyph-name="uF022E" unicode="&#xf022e;" horiz-adv-x="432" 
d="M-36 740h591v-77h-224v-242q0 -100 -34.5 -149.5t-117.5 -49.5q-160 0 -154 196h85q0 -59 13 -89t57 -30q46 0 58 37q10 28 10 84v243h-284v77zM291 -1h-103q365 391 367 394v-94zM78 133q24 0 41.5 -17.5t17.5 -41.5t-17.5 -41.5t-41.5 -17.5t-41 17.5t-17 41.5t17 41.5
t41 17.5z" />
    <glyph glyph-name="uF022F" unicode="&#xf022f;" horiz-adv-x="521" 
d="M-36 740h757v-77h-757v77zM704 514v-74h-239v-50q0 -117 -37 -185q-41 -77 -160 -77q-122 0 -164 79q-36 69 -36 183v124h86v-101q0 -138 26 -171q29 -38 88 -38q60 0 87 38q21 29 24 102q1 24 1 69v101h324zM450 -13h-102q354 397 356 400v-90zM128 74q24 0 41.5 -17.5
t17.5 -41.5t-17.5 -41.5t-41.5 -17.5t-41 17.5t-17 41.5t17 41.5t41 17.5z" />
    <glyph glyph-name="uF0230" unicode="&#xf0230;" horiz-adv-x="728" 
d="M939 663h-395v-206q54 83 170 83q97 0 155.5 -61.5t57.5 -161.5h-82q0 70 -38.5 108t-109.5 38t-112 -47.5t-41 -122.5v-293h-86v310l-243 -316h-101l203 244h-15q-101 0 -153.5 66.5t-52.5 177.5v181h-132v77h975v-77zM182 663v-181q0 -85 32 -128.5t101.5 -43.5
t105 46.5t37.5 117.5v189h-276zM143 173q0 -23 -17 -40t-39.5 -17t-39 17t-16.5 40t16.5 39.5t39 16.5t39.5 -16.5t17 -39.5z" />
    <glyph glyph-name="uF0231" unicode="&#xf0231;" horiz-adv-x="1773" 
d="M1816 663h-487v-179q50 81 155.5 81t165 -65t59.5 -173t-78.5 -169.5t-199.5 -47.5l-1 74q87 -8 140 30.5t53 114.5t-39 117.5t-111 41.5t-108 -45.5t-36 -127.5v-315h-84v183q-54 -81 -161 -81t-168.5 64.5t-61.5 165.5q0 73 -39 114.5t-111 41.5t-108 -45.5t-36 -127.5
v-315h-84v183q-54 -81 -161 -81t-168.5 64.5t-61.5 166t61 166.5t168.5 65t161.5 -82v181h-512v77h1852v-77zM211.5 218.5q40.5 -40.5 113.5 -40.5t112 41.5t39 113.5t-40.5 113t-112.5 41t-112 -40.5t-40 -114t40.5 -114zM560 663v-179q50 81 163.5 81t174.5 -87
q61 86 177 86t170 -82v181h-685zM980.5 218.5q40.5 -40.5 113.5 -40.5t112 41.5t39 113.5t-40.5 113t-112.5 41t-112 -40.5t-40 -114t40.5 -114z" />
    <glyph glyph-name="uF0232" unicode="&#xf0232;" horiz-adv-x="1781" 
d="M1816 663h-487v-179q50 81 155.5 81t165 -65t59.5 -173t-78.5 -169.5t-199.5 -47.5l-1 74q87 -8 140 30.5t53 114.5t-39 117.5t-111 41.5t-108 -45.5t-36 -127.5v-315h-84v183q-54 -81 -161 -81t-168.5 64.5t-61.5 165.5q0 73 -39 114.5t-111 41.5t-108 -45.5t-36 -127.5
v-315h-84v183q-54 -81 -161 -81t-168.5 64.5t-61.5 166t61 166.5t168.5 65t161.5 -82v181h-512v77h1852v-77zM211.5 218.5q40.5 -40.5 113.5 -40.5t112 41.5t39 113.5t-40.5 113t-112.5 41t-112 -40.5t-40 -114t40.5 -114zM560 663v-179q50 81 163.5 81t174.5 -87
q61 86 177 86t170 -82v181h-685zM980.5 218.5q40.5 -40.5 113.5 -40.5t112 41.5t39 113.5t-40.5 113t-112.5 41t-112 -40.5t-40 -114t40.5 -114zM1114 25q24 0 41.5 -17.5t17.5 -41.5t-17.5 -41.5t-41.5 -17.5t-41 17.5t-17 41.5t17 41.5t41 17.5zM348 25q24 0 41.5 -17.5
t17.5 -41.5t-17.5 -41.5t-41.5 -17.5t-41 17.5t-17 41.5t17 41.5t41 17.5z" />
    <glyph glyph-name="uF0233" unicode="&#xf0233;" horiz-adv-x="1688" 
d="M1724 740v-77h-131v-663h-84v203q-48 -64 -147 -64q-11 0 -31 2q-22 -69 -84 -106t-148 -37q-113 0 -179 64t-66 176v94q0 73 -39 114.5t-111 41.5t-108 -45.5t-36 -127.5v-315h-84v183q-54 -81 -161 -81t-168.5 64.5t-61.5 166t61 166.5t168.5 65t161.5 -82v181h-512v77
h1760zM211.5 218.5q40.5 -40.5 113.5 -40.5t112 41.5t39 113.5t-40.5 113t-112.5 41t-112 -40.5t-40 -114t40.5 -114zM560 663v-179q50 81 160 81q81 0 135.5 -42.5t73.5 -114.5q70 4 90 36t20 140v79h-479zM940 236q0 -161 159 -161q61 0 100.5 24.5t53.5 69.5
q-90 56 -90 175q0 89 55.5 146.5t150.5 57.5t140 -60v175h-385v-80q0 -140 -37.5 -189.5t-146.5 -52.5v-105zM1282.5 248.5q36.5 -35.5 96 -35.5t95 35.5t35.5 95.5t-35 95t-95 35t-96.5 -35t-36.5 -95t36.5 -95.5z" />
    <glyph glyph-name="uF0234" unicode="&#xf0234;" horiz-adv-x="1403" 
d="M1439 740v-77h-131v-663h-86v188q-54 -89 -179 -89q-95 0 -160 57.5t-65 148.5q0 109 81 161h-139q-110 0 -154 -32q-18 -13 -31.5 -38t-14.5 -59v-337h-84v183q-54 -81 -161 -81t-168.5 64.5t-61.5 166t61 166.5t168.5 65t161.5 -82v181h-512v77h1475zM211.5 218.5
q40.5 -40.5 113.5 -40.5t112 41.5t39 113.5t-40.5 113t-112.5 41t-112 -40.5t-40 -114t40.5 -114zM1222 350v313h-662v-194q29 44 83.5 56.5t146.5 12.5h299v-72h-28q-72 0 -115.5 -42t-43.5 -109t43 -103.5t113.5 -36.5t117 50.5t46.5 124.5z" />
    <glyph glyph-name="uF0235" unicode="&#xf0235;" horiz-adv-x="1594" 
d="M1630 740v-77h-130v-663h-86v440h-182v-74q0 -117 -36 -185q-42 -77 -155 -77t-157 61.5t-47 168.5q0 78 -30.5 115.5t-101.5 37.5t-108 -45.5t-37 -127.5v-314h-84v183q-54 -81 -161 -81t-168.5 64.5t-61.5 166t61 166.5t168.5 65t161.5 -82v181h-512v77h1666z
M211.5 218.5q40.5 -40.5 113.5 -40.5t112 41.5t39 113.5t-40.5 113t-112.5 41t-112 -40.5t-40 -114t40.5 -114zM1414 514v149h-854v-182q51 83 157 83t155.5 -61t49.5 -168q2 -77 25 -115.5t88 -38.5q60 0 87 37q21 30 24 102q1 24 1 69v125h267z" />
    <glyph glyph-name="uF0236" unicode="&#xf0236;" horiz-adv-x="1440" 
d="M1227 485h-68q-102 -1 -162 -47t-60 -133.5t51 -136.5t135.5 -49t132.5 49t48 134h84q0 -119 -72 -189.5t-192 -70.5t-196 71t-76 187q0 12 2 36q-1 72 -39 112t-109.5 40t-108.5 -45.5t-37 -127.5v-315h-84v183q-54 -81 -161 -81t-168.5 64.5t-61.5 166t61 166.5
t168.5 65t161.5 -82v181h-512v77h1512v-77h-249v-178zM211.5 218.5q40.5 -40.5 113.5 -40.5t112 41.5t39 113.5t-40.5 113t-112.5 41t-112 -40.5t-40 -114t40.5 -114zM560 663v-181q51 83 162 83q130 0 181 -104q77 97 238 100v102h-581z" />
    <glyph glyph-name="uF0237" unicode="&#xf0237;" horiz-adv-x="1603" 
d="M1639 740v-77h-131v-663h-86v663h-177v-255q0 -240 -201 -240q-176 0 -199 183q-13 136 -142 136q-70 0 -106.5 -45.5t-36.5 -127.5v-314h-84v183q-54 -81 -161 -81t-168.5 64.5t-61.5 166t61 166.5t168.5 65t161.5 -82v181h-512v77h1675zM211.5 218.5
q40.5 -40.5 113.5 -40.5t112 41.5t39 113.5t-40.5 113t-112.5 41t-112 -40.5t-40 -114t40.5 -114zM560 663v-179q50 80 156 80q77 0 126 -44v143h-282zM1160 406v257h-233v-257q0 -80 25 -120.5t92 -40.5t91.5 40.5t24.5 120.5z" />
    <glyph glyph-name="uF0238" unicode="&#xf0238;" horiz-adv-x="1104" 
d="M1140 663h-518v-262q57 82 176 82q103 0 167 -66t64 -172.5t-68.5 -172t-178.5 -62.5q-17 0 -26 1v75q83 -6 135 36.5t52 120t-44 120.5t-118 43t-116.5 -42t-42.5 -116v-248h-85v421h-144q-91 0 -145 -42.5t-54 -130.5t45 -132.5t146 -44.5v-73h-13q-132 0 -198.5 66
t-66.5 182q0 59 25.5 107t68.5 70h-174v74h510v166h-573v77h1176v-77z" />
    <glyph glyph-name="uF0239" unicode="&#xf0239;" horiz-adv-x="1410" 
d="M1446 740v-77h-130v-663h-86v421h-144q-92 0 -145.5 -41.5t-53.5 -130.5t45 -133.5t146 -44.5v-73h-13q-132 0 -198.5 66.5t-66.5 183.5q0 92 43 153q-30 87 -141 87q-70 0 -106 -45.5t-36 -127.5v-315h-84v183q-54 -81 -161 -81t-168.5 64.5t-61.5 166t61 166.5
t168.5 65t161.5 -82v181h-512v77h1482zM211.5 218.5q40.5 -40.5 113.5 -40.5t112 41.5t39 113.5t-40.5 113t-112.5 41t-112 -40.5t-40 -114t40.5 -114zM1230 497v166h-670v-179q50 81 160 81q132 0 188 -108q69 40 178 40h144zM352 23q24 0 41.5 -17.5t17.5 -41.5
t-17.5 -41.5t-41.5 -17.5t-41 17.5t-17 41.5t17 41.5t41 17.5z" />
    <glyph glyph-name="uF023A" unicode="&#xf023a;" horiz-adv-x="1906" 
d="M1942 740v-77h-131v-663h-85v217q-27 -51 -79 -81t-124 -30q-117 0 -186.5 65.5t-84.5 182.5q-26 67 -144 67q-87 0 -134.5 -43t-47.5 -129.5t39 -132t137 -45.5v-73h-13q-130 0 -190 68t-60 182q0 46 11 87q-1 72 -38 112.5t-108.5 40.5t-107.5 -45.5t-36 -127.5v-315
h-84v183q-54 -81 -161 -81t-168.5 64.5t-61.5 166t61 166.5t168.5 65t161.5 -82v181h-512v77h1978zM211.5 218.5q40.5 -40.5 113.5 -40.5t112 41.5t39 113.5t-40.5 113t-112.5 41t-112 -40.5t-40 -114t40.5 -114zM560 663v-179q50 81 160 81q72 0 121.5 -34t72.5 -93
q68 59 186.5 59t177.5 -50q56 2 102 17q26 9 46 44q12 19 13 55t1 69v31h-880zM1525 663v-33q0 -63 -6 -102t-25 -72.5t-57 -49.5t-98 -20q-2 -91 49.5 -147t142.5 -56t143 60.5t52 157.5v262h-201z" />
    <glyph glyph-name="uF023B" unicode="&#xf023b;" horiz-adv-x="1397" 
d="M1433 740v-77h-146v-663h-86v254l-243 -255h-114v5l350 347q-12 60 -51.5 95.5t-101.5 35.5q-134 0 -150 -155h-79q0 159 -124 159q-128 0 -128 -171v-315h-84v183q-54 -81 -161 -81t-168.5 64.5t-61.5 166t61 166.5t168.5 65t161.5 -82v181h-512v77h1469zM211.5 218.5
q40.5 -40.5 113.5 -40.5t112 41.5t39 113.5t-40.5 113t-112.5 41t-112 -40.5t-40 -114t40.5 -114zM1201 663h-641v-173q45 71 141 71q113 0 156 -99q53 97 174 97t170 -93v197z" />
    <glyph glyph-name="uF023C" unicode="&#xf023c;" horiz-adv-x="1798" 
d="M1834 740v-77h-131v-663h-84v182q-58 -88 -183 -88q-101 0 -166.5 67t-65.5 170q0 49 15 90h-95q-92 0 -145.5 -41.5t-53.5 -130.5t45 -133.5t146 -44.5v-73h-13q-132 0 -198.5 66.5t-66.5 183.5q0 50 12 88q-2 72 -39 112t-108 40t-107 -45.5t-36 -127.5v-315h-84v183
q-54 -81 -161 -81t-168.5 64.5t-61.5 166t61 166.5t168.5 65t161.5 -82v181h-512v77h1870zM211.5 218.5q40.5 -40.5 113.5 -40.5t112 41.5t39 113.5t-40.5 113t-112.5 41t-112 -40.5t-40 -114t40.5 -114zM1124 497h141q66 72 171 72q125 0 183 -88v182h-1059v-179
q50 81 160 81q72 0 122 -34.5t72 -94.5q76 61 210 61zM1619 331v1q0 74 -45 117.5t-120 43.5t-120 -43.5t-45 -118t45 -118t120 -43.5t120 43.5t45 117.5z" />
    <glyph glyph-name="uF023D" unicode="&#xf023d;" horiz-adv-x="1518" 
d="M1332 740h216v-77h-130v-663h-86v196q-23 -41 -75 -71t-130 -30q-130 0 -203 80t-73 210q-16 103 -125 103q-70 0 -106 -45.5t-36 -127.5v-315h-85v182q-53 -80 -160 -80t-168.5 64.5t-61.5 166t61 166.5t168 65t161 -81v180h-511v77h983q31 10 69 10q83 0 138 -49
t55 -132q0 -112 -87 -154q-76 -37 -204 -35q-5 -94 45 -151.5t142 -57.5t147.5 55t55.5 142v372zM235.5 218.5q40.5 -40.5 113 -40.5t111.5 41.5t39 113.5t-40 113t-112 41t-112 -40.5t-40 -114t40.5 -114zM584 663v-179q50 81 160 81q66 0 111 -30.5t66 -83.5
q145 -3 189 31q38 29 38 83.5t-30 81t-72.5 26.5t-67.5 -10h-394z" />
    <glyph glyph-name="uF023E" unicode="&#xf023e;" horiz-adv-x="1381" 
d="M1268 483h-113q-70 0 -116 -12.5t-76 -49.5t-30 -106t43.5 -107t111.5 -38q140 0 140 124h78v-294h-85v146q-39 -52 -140.5 -52t-168 62t-66.5 167q0 15 1 22q-3 68 -39 105.5t-106 37.5t-106 -45.5t-36 -127.5v-315h-84v183q-54 -81 -161 -81t-168.5 64.5t-61.5 166
t61.5 166.5t168.5 65t161 -82v181h-512v77h1453v-77h-149v-180zM211.5 218.5q40.5 -40.5 113.5 -40.5t112 41.5t39 113.5t-40.5 113t-112.5 41t-112 -40.5t-40 -114t40.5 -114zM560 663v-179q50 81 165.5 81t165.5 -96q72 92 252 92h40v102h-623z" />
    <glyph glyph-name="uF023F" unicode="&#xf023f;" horiz-adv-x="1574" 
d="M1610 740v-77h-130v-663h-86v413h-207q63 -38 63 -124.5t-53 -137.5t-141 -51t-146.5 53t-58.5 141q0 20 3 39q0 73 -38 114t-110 41t-109 -45.5t-37 -127.5v-315h-84v183q-54 -81 -161 -81t-168.5 64.5t-61.5 166t61 166.5t168.5 65t161.5 -82v181h-512v77h1646z
M211.5 218.5q40.5 -40.5 113.5 -40.5t112 41.5t39 113.5t-40.5 113t-112.5 41t-112 -40.5t-40 -114t40.5 -114zM968.5 206q35.5 -30 86 -30t83.5 31t33 85.5t-31.5 86.5t-84.5 32t-87.5 -31t-34.5 -87.5t35.5 -86.5zM1394 487v176h-834v-184q51 86 161 86q144 0 192 -127
q58 49 166 49h315z" />
    <glyph glyph-name="uF0240" unicode="&#xf0240;" horiz-adv-x="1397" 
d="M1433 740v-77h-130v-663h-86v284q-50 -84 -169 -84q-88 0 -141.5 51.5t-67.5 138.5q-28 97 -137 97q-70 0 -106 -45.5t-36 -127.5v-314h-84v183q-54 -81 -161 -81t-168.5 64.5t-61.5 166t61 166.5t168.5 65t161.5 -82v181h-512v77h1469zM211.5 218.5
q40.5 -40.5 113.5 -40.5t112 41.5t39 113.5t-40.5 113t-112.5 41t-112 -40.5t-40 -114t40.5 -114zM560 663v-178q50 79 154 79q71 0 120 -44v143h-274zM920 663v-211q0 -175 149 -175q66 0 107 46t41 117v223h-297z" />
    <glyph glyph-name="uF0241" unicode="&#xf0241;" horiz-adv-x="1397" 
d="M1433 740v-77h-130v-663h-86v281l-250 -287h-102q117 128 192 210h-9q-88 0 -141.5 50t-67.5 136q-28 97 -137 97q-70 0 -106 -45.5t-36 -127.5v-314h-84v183q-54 -81 -161 -81t-168.5 64.5t-61.5 166t61 166.5t168.5 65t161.5 -82v181h-512v77h1469zM211.5 218.5
q40.5 -40.5 113.5 -40.5t112 41.5t39 113.5t-40.5 113t-112.5 41t-112 -40.5t-40 -114t40.5 -114zM560 663v-178q50 79 154 79q71 0 120 -44v143h-274zM920 663v-211q0 -175 149 -175q66 0 107 46t41 117v223h-297z" />
    <glyph glyph-name="uF0242" unicode="&#xf0242;" horiz-adv-x="1720" 
d="M1756 663h-482v-206q54 83 170 83q97 0 156 -61.5t59 -164t-72.5 -162t-189.5 -50.5l-1 74q80 -7 129 31t49 109t-38 109t-109 38t-112 -47.5t-41 -122.5v-293h-86v312q-49 -79 -156 -79q-83 0 -133.5 47.5t-65.5 128.5q-33 78 -131 78q-70 0 -106 -46t-36 -128v-313h-84
v183q-54 -81 -161 -81t-168.5 64.5t-61.5 166t61 166.5t168.5 65t161.5 -82v181h-512v77h1792v-77zM211.5 218.5q40.5 -40.5 113.5 -40.5t112 41.5t39 113.5t-40.5 113t-112.5 41t-112 -40.5t-40 -114t40.5 -114zM560 663v-179q50 79 154 79q65 0 112 -37v137h-266zM912 663
v-181q0 -85 32 -128.5t102 -43.5t106 49t36 122v182h-276z" />
    <glyph glyph-name="uF0243" unicode="&#xf0243;" horiz-adv-x="1721" 
d="M1757 663h-482v-206q54 83 170 83q97 0 156 -61.5t59 -164t-72.5 -162t-189.5 -50.5l-1 74q80 -7 129 31t49 109t-38 109t-109 38t-112 -47.5t-41 -122.5v-293h-86v312q-49 -79 -156 -79q-83 0 -133.5 47.5t-65.5 128.5q-33 78 -131 78q-70 0 -106 -46t-36 -128v-313h-84
v183q-54 -81 -161 -81t-168.5 64.5t-61.5 166t61 166.5t168.5 65t161.5 -82v181h-508v77h1788v-77zM212.5 218.5q40.5 -40.5 113.5 -40.5t112 41.5t39 113.5t-40.5 113t-112.5 41t-112 -40.5t-40 -114t40.5 -114zM561 663v-179q50 79 154 79q65 0 112 -37v137h-266zM913 663
v-181q0 -85 32 -128.5t102 -43.5t106 49t36 122v182h-276zM340 28q24 0 41.5 -17.5t17.5 -41.5t-17.5 -41.5t-41.5 -17.5t-41 17.5t-17 41.5t17 41.5t41 17.5z" />
    <glyph glyph-name="uF0244" unicode="&#xf0244;" horiz-adv-x="1721" 
d="M1757 663h-482v-206q54 83 170 83q97 0 156 -61.5t59 -164t-72.5 -162t-189.5 -50.5l-1 74q80 -7 129 31t49 109t-38 109t-109 38t-112 -47.5t-41 -122.5v-293h-86v312q-49 -79 -156 -79q-83 0 -133.5 47.5t-65.5 128.5q-33 78 -131 78q-70 0 -106 -46t-36 -128v-313h-28
q1 -4 1 -12q0 -24 -17.5 -41.5t-41.5 -17.5t-41 17.5t-17 41.5t17 41.5t41 17.5h2v136q-54 -81 -161 -81t-168.5 64.5t-61.5 166t61 166.5t168.5 65t161.5 -82v181h-508v77h1788v-77zM212.5 218.5q40.5 -40.5 113.5 -40.5t112 41.5t39 113.5t-40.5 113t-112.5 41t-112 -40.5
t-40 -114t40.5 -114zM561 663v-179q50 79 154 79q65 0 112 -37v137h-266zM913 663v-181q0 -85 32 -128.5t102 -43.5t106 49t36 122v182h-276zM868 97q24 0 41.5 -17.5t17.5 -41.5t-17.5 -41.5t-41.5 -17.5t-41 17.5t-17 41.5t17 41.5t41 17.5z" />
    <glyph glyph-name="uF0245" unicode="&#xf0245;" horiz-adv-x="1470" 
d="M1506 740v-77h-131v-663h-84v177q-60 -91 -186 -91q-108 0 -179.5 68.5t-71.5 176.5v1q0 73 -39 114.5t-111 41.5t-108 -45.5t-36 -127.5v-315h-84v183q-54 -81 -161 -81t-168.5 64.5t-61.5 166t61 166.5t168.5 65t161.5 -82v181h-512v77h1542zM1293 331
q0 76 -48.5 124.5t-123.5 48.5t-121 -36l276 -215q17 36 17 78zM211.5 218.5q40.5 -40.5 113.5 -40.5t112 41.5t39 113.5t-40.5 113t-112.5 41t-112 -40.5t-40 -114t40.5 -114zM560 663v-181q48 83 163.5 83t171.5 -92q72 104 203.5 104t192.5 -93v179h-731zM936 331
q0 -80 50.5 -126.5t127 -46.5t126.5 45l-281 220q-23 -40 -23 -92zM343 28q24 0 41.5 -17.5t17.5 -41.5t-17.5 -41.5t-41.5 -17.5t-41 17.5t-17 41.5t17 41.5t41 17.5z" />
    <glyph glyph-name="uF0246" unicode="&#xf0246;" horiz-adv-x="1523" 
d="M1559 740v-77h-131v-663h-86v380h-182v-59q0 -220 -181 -220q-80 0 -134 50t-54 130.5t50 122.5q-33 84 -139 84q-70 0 -106 -45.5t-36 -127.5v-315h-84v183q-54 -81 -161 -81t-168.5 64.5t-61.5 166t61 166.5t168.5 65t161.5 -82v181h-512v77h1595zM211.5 218.5
q40.5 -40.5 113.5 -40.5t112 41.5t39 113.5t-40.5 113t-112.5 41t-112 -40.5t-40 -114t40.5 -114zM560 663v-179q50 81 160 81q71 0 121.5 -32.5t75.5 -90.5q45 12 107 12h53v209h-517zM1077 320v60h-58q-70 0 -107.5 -22.5t-37.5 -73.5t29 -79t80 -28t72.5 35.5t21.5 107.5
zM1342 454v209h-182v-209h182z" />
    <glyph glyph-name="uF0247" unicode="&#xf0247;" horiz-adv-x="1503" 
d="M1539 740v-77h-131v-663h-85v380h-183v-59q0 -220 -181 -220q-80 0 -134 50t-54 135.5t65 129.5q-36 72 -134 72q-70 0 -106 -45.5t-36 -127.5v-315h-84v183q-54 -81 -161 -81t-168.5 64.5t-61.5 166t61 166.5t168.5 65t161.5 -82v181h-512v77h1575zM211.5 218.5
q40.5 -40.5 113.5 -40.5t112 41.5t39 113.5t-40.5 113t-112.5 41t-112 -40.5t-40 -114t40.5 -114zM560 663v-179q50 81 160 81q141 0 195 -119q42 8 89 8h53v209h-497zM1057 320v60h-58q-70 0 -107.5 -22.5t-37.5 -73.5t29 -79t80 -28t72.5 35.5t21.5 107.5zM1323 454v209
h-183v-209h183zM349 24q24 0 41.5 -17.5t17.5 -41.5t-17.5 -41.5t-41.5 -17.5t-41 17.5t-17 41.5t17 41.5t41 17.5z" />
    <glyph glyph-name="uF0248" unicode="&#xf0248;" horiz-adv-x="1507" 
d="M1541 740v-77h-130v-663h-86v215q-27 -50 -79 -79.5t-124 -29.5q-125 0 -195.5 75t-78.5 206q-11 47 -49 74t-102.5 27t-100.5 -46t-36 -128v-314h-84v183q-54 -81 -161 -81t-168.5 64.5t-61.5 166t61 166.5t168.5 65t161.5 -82v181h-512v77h1577zM211.5 218.5
q40.5 -40.5 113.5 -40.5t112 41.5t39 113.5t-40.5 113t-112.5 41t-112 -40.5t-40 -114t40.5 -114zM560 663v-180q50 81 160 81q66 0 116.5 -30.5t75.5 -83.5q67 7 98 35q25 22 28 84q1 21 1 63v31h-479zM1125 663v-33q0 -130 -32 -176q-30 -42 -84 -58q-30 -8 -71 -10
q-1 -92 50.5 -147.5t142.5 -55.5t142.5 60.5t51.5 157.5v262h-200z" />
    <glyph glyph-name="uF0249" unicode="&#xf0249;" horiz-adv-x="1671" 
d="M1707 663h-266v-155q80 -14 120 -76t40 -161q0 -124 -74 -193.5t-199 -58.5v78q92 -7 139.5 40t47.5 135q0 162 -122 162q-137 0 -128 -208h-82q9 208 -128 208q-123 0 -123 -162q0 -88 47.5 -135t139.5 -40v-78q-125 -11 -199 58.5t-74 193.5q0 36 4 61q0 74 -37.5 115
t-109 41t-107.5 -45.5t-36 -127.5v-315h-85v182q-53 -80 -160 -80t-168.5 64.5t-61.5 166t61 166.5t168 65t161 -81v180h-511v77h1743v-77zM211.5 218.5q40.5 -40.5 113 -40.5t111.5 41.5t39 113.5t-40 113t-112 41t-112 -40.5t-40 -114t40.5 -114zM1357 663h-797v-179
q49 81 158 81q133 0 184 -111q52 58 148 58q65 0 110.5 -31.5t63.5 -89.5q14 48 48.5 77.5t84.5 36.5v158z" />
    <glyph glyph-name="uF024A" unicode="&#xf024a;" horiz-adv-x="1448" 
d="M1484 740v-77h-131v-663h-84v182q-58 -88 -183 -88q-101 0 -166.5 67t-65.5 170v1q0 73 -39 114.5t-111 41.5t-108 -45.5t-36 -127.5v-315h-84v183q-54 -81 -161 -81t-168.5 64.5t-61.5 166t61 166.5t168.5 65t161.5 -82v181h-512v77h1520zM211.5 218.5
q40.5 -40.5 113.5 -40.5t112 41.5t39 113.5t-40.5 113t-112.5 41t-112 -40.5t-40 -114t40.5 -114zM560 663v-181q48 83 164.5 83t168.5 -96q65 100 191.5 100t184.5 -88v182h-709zM1269 331v1q0 74 -45 117.5t-120 43.5t-120 -43.5t-45 -118t45 -118t120 -43.5t120 43.5
t45 117.5z" />
    <glyph glyph-name="uF024B" unicode="&#xf024b;" horiz-adv-x="1922" 
d="M1957 740v-77h-130v-663h-86v216q-27 -50 -79 -80t-124 -30q-146 0 -219 103q-29 -55 -85.5 -85t-129.5 -30q-110 0 -180 64.5t-70 172.5v1q0 73 -39 114.5t-111 41.5t-108 -45.5t-36 -127.5v-315h-84v183q-54 -81 -161 -81t-168.5 64.5t-61.5 166t61 166.5t168.5 65
t161.5 -82v181h-512v77h1993zM211.5 218.5q40.5 -40.5 113.5 -40.5t112 41.5t39 113.5t-40.5 113t-112.5 41t-112 -40.5t-40 -114t40.5 -114zM560 663v-179q50 81 164.5 81t174.5 -89q69 93 205 93q75 0 132 -31.5t86 -88.5q67 5 103 35q24 19 29 84q1 21 1 64v31h-895z
M1269 331v13q-3 12 -3 25q-11 59 -54 91.5t-113 32.5t-114.5 -43.5t-44.5 -118t44.5 -118t119.5 -43.5t120 43.5t45 117.5zM1540 663v-33q0 -63 -6 -102t-25 -72.5t-56.5 -49.5t-98.5 -20q-1 -92 50.5 -147.5t142.5 -55.5t142.5 60.5t51.5 157.5v262h-201z" />
    <glyph glyph-name="uF024C" unicode="&#xf024c;" horiz-adv-x="1527" 
d="M1346 740h216v-77h-130v-663h-86v740zM-36 740h1001q31 9 69 9q94 0 151 -56t57 -144q0 -124 -78 -173q-71 -45 -193 -47q-5 0 -45 2v-130q0 -126 109 -126q61 0 84.5 36.5t24.5 110.5h85q-4 -224 -194 -224q-92 0 -144 53t-52 151v120q0 156 -137 156q-142 0 -142 -164
v-314h-84v183q-54 -81 -161 -81t-168.5 64.5t-61.5 166t61 166.5t168.5 65t161.5 -82v181h-512v77zM211.5 218.5q40.5 -40.5 113.5 -40.5t112 41.5t39 113.5t-40.5 113t-112.5 41t-112 -40.5t-40 -114t40.5 -114zM934 403q52 0 87 4.5t69 18.5q66 29 66 122q0 59 -32 92
t-85 33q-107 0 -121 -84l-84 -1q3 40 25 75h-299v-185q49 77 160 77q78 0 127 -40.5t67 -111.5h20z" />
    <glyph glyph-name="uF024D" unicode="&#xf024d;" horiz-adv-x="1285" 
d="M1321 740v-77h-131v-663h-86v380h-182v-59q0 -220 -181 -220q-80 0 -134 50t-54 128q0 54 22 93h-238q-5 -3 -22.5 -12t-24 -12.5t-22 -12.5t-22 -14t-19.5 -14.5t-19 -16.5t-14.5 -17t-11.5 -19q-10 -26 -10 -46q0 -45 29.5 -73.5t86 -28.5t87 33t30.5 84h74v-259h-84
v123q-16 -23 -49 -40t-81 -17q-80 0 -129.5 46.5t-49.5 118t45.5 117.5t118.5 84q-66 16 -104 62t-38 120.5t57 123t142.5 48.5t137 -49t51.5 -126t-64 -131h254q41 10 100 10h53v209h-255v77h737zM417 568q0 51 -30.5 78.5t-81 27.5t-83.5 -27.5t-33 -85.5t42.5 -87.5
t107.5 -29.5q78 47 78 124zM839 320v60h-58q-70 0 -107.5 -22.5t-37.5 -73.5t29 -79t80 -28t72.5 35.5t21.5 107.5zM1104 454v209h-182v-209h182z" />
    <glyph glyph-name="uF024E" unicode="&#xf024e;" horiz-adv-x="1710" 
d="M1746 740v-77h-131v-663h-85v218q-26 -51 -78.5 -81.5t-124.5 -30.5q-123 0 -193.5 72.5t-79.5 201.5h-132v-59q0 -220 -181 -220q-80 0 -134 50t-54 128q0 54 22 93h-238q-5 -3 -22.5 -12t-24 -12.5t-22 -12.5t-22 -14t-19.5 -14.5t-19 -16.5t-14.5 -17t-11.5 -19
q-10 -26 -10 -46q0 -45 29.5 -73.5t86 -28.5t87 33t30.5 84h74v-259h-84v123q-16 -23 -49 -40t-81 -17q-80 0 -129.5 46.5t-49.5 118t45.5 117.5t118.5 84q-66 16 -104 62t-38 120.5t57 123t142.5 48.5t137 -49t51.5 -126t-64 -131h254q41 10 100 10h53v209h-270v77h1177z
M417 568q0 51 -30.5 78.5t-81 27.5t-83.5 -27.5t-33 -85.5t42.5 -87.5t107.5 -29.5q78 47 78 124zM839 320v60h-58q-70 0 -107.5 -22.5t-37.5 -73.5t29 -79t80 -28t72.5 35.5t21.5 107.5zM922 454h178q36 2 60.5 6t40.5 15.5t24.5 21.5t12.5 34q6 29 6 98v34h-322v-209z
M1329 663v-36q0 -63 -6 -101.5t-25 -71.5t-57 -48.5t-98 -19.5q-2 -92 49.5 -147.5t143 -55.5t143 61t51.5 159v260h-201z" />
    <glyph glyph-name="uF024F" unicode="&#xf024f;" horiz-adv-x="1204" 
d="M564 740h676v-77h-130v-665h-86v220q-27 -52 -79.5 -82.5t-126.5 -30.5q-124 0 -193 70.5t-76 198.5h-212q-68 -31 -86 -40.5t-40.5 -24.5t-33.5 -29q-28 -34 -28 -81.5t32.5 -77.5t91 -30t97.5 34t39 82h74v-259h-83v130q-44 -63 -136.5 -63t-146.5 49.5t-54 132.5
q0 80 55 126q45 38 116 70q-137 37 -137 167q0 85 58.5 137.5t145.5 52.5t140.5 -51t53.5 -127.5t-55 -126.5h109q77 0 103 8.5t39.5 14t22.5 20t14 24.5t7 33q3 35 3 86v32h-174v77zM416 557q0 55 -33 86t-83.5 31t-85.5 -30t-35 -87q0 -110 162 -112q75 46 75 112z
M823 663v-35q0 -63 -6 -102.5t-25 -74.5t-56.5 -52t-97.5 -21q-2 -91 47 -143.5t142 -52.5t145 61t52 158v262h-201z" />
    <glyph glyph-name="uF0250" unicode="&#xf0250;" horiz-adv-x="1162" 
d="M575 740h622v-77h-130v-663h-85v182q-58 -88 -182 -88q-101 0 -166.5 67t-65.5 170q0 13 2 35h-245q-40 -16 -54.5 -24.5t-36 -20t-28 -17.5t-20 -19t-18.5 -24q-14 -31 -14 -59q0 -52 32 -81.5t91 -29.5t97.5 34t38.5 82h74v-259h-83v130q-44 -63 -136.5 -63
t-146.5 49.5t-54 127t43 120.5t118 77q-61 20 -94 64.5t-33 106.5q0 85 58.5 137.5t146 52.5t140.5 -51t53 -129t-64 -133h155q27 61 82.5 96.5t127.5 35.5q123 0 182 -87v181h-407v77zM420 557q0 55 -33 86t-83 31t-85.5 -30t-35.5 -86.5t39 -87.5t110 -33q88 47 88 120z
M982 331v1q0 74 -45 117.5t-120 43.5t-119.5 -43.5t-44.5 -118t44.5 -118t119.5 -43.5t120 43.5t45 117.5z" />
    <glyph glyph-name="uF0251" unicode="&#xf0251;" horiz-adv-x="1569" 
d="M1605 740v-77h-130v-663h-86v352h-448v-141q0 -136 107 -136q59 0 83 38.5t24 113.5h85q2 -108 -46 -168.5t-144 -60.5t-146 58t-50 156v120q0 73 -39 114.5t-111 41.5t-108 -45.5t-36 -127.5v-315h-84v183q-54 -81 -161 -81t-168.5 64.5t-61.5 166t61 166.5t168.5 65
t161.5 -82v181h-512v77h1641zM211.5 218.5q40.5 -40.5 113.5 -40.5t112 41.5t39 113.5t-40.5 113t-112.5 41t-112 -40.5t-40 -114t40.5 -114zM560 663v-179q50 81 160 81q77 0 131 -39t75 -107q39 3 40 3l1 2h18q77 11 100 57t23 158v24h-548zM1389 424v239h-195v-25
q0 -157 -50 -214h245z" />
    <glyph glyph-name="uF0252" unicode="&#xf0252;" horiz-adv-x="1914" 
d="M1701 485h-69q-102 -1 -161.5 -47t-59.5 -133.5t51 -136.5t135.5 -49t132.5 49t48 134h84q0 -119 -72.5 -189.5t-192.5 -70.5t-195.5 71t-75.5 187q0 31 4 52h-404v-141q0 -136 107 -136q59 0 83.5 38.5t23.5 113.5h86q2 -108 -46 -168.5t-144.5 -60.5t-146.5 58t-50 156
v120q0 156 -137 156q-70 0 -106 -45.5t-36 -127.5v-315h-84v183q-54 -81 -161 -81t-168.5 64.5t-61.5 166t61 166.5t168.5 65t161.5 -82v181h-512v77h1985v-77h-248v-178zM211.5 218.5q40.5 -40.5 113.5 -40.5t112 41.5t39 113.5t-40.5 113t-112.5 41t-112 -40.5t-40 -114
t40.5 -114zM560 663v-179q50 81 160 81q76 0 125 -39t68 -107q24 0 36 2l1 3h26q78 12 98 60t20 179h-534zM1615 663h-436v-1q-1 -180 -49 -238h224q33 65 101 100t160 37v102z" />
    <glyph glyph-name="uF0253" unicode="&#xf0253;" horiz-adv-x="1846" 
d="M1734 482h-162q-61 0 -96 -16.5t-35 -64.5t32.5 -64.5t82.5 -16.5t79.5 -3t60.5 -13.5t52 -27.5q47 -39 47 -116t-57 -124.5t-160.5 -47.5t-169.5 55t-68 154h85q8 -135 157 -135q60 0 94 24.5t34 74.5q0 58 -44 74q-34 13 -93 13q-181 0 -212 104h-420v-141
q0 -136 107 -136q58 0 82.5 38.5t23.5 113.5h86q2 -108 -46 -168.5t-144 -60.5t-146 58t-50 156v120q0 73 -39 114.5t-111 41.5t-108 -45.5t-36 -127.5v-315h-84v183q-54 -81 -161 -81t-168.5 64.5t-61.5 166t61 166.5t168.5 65t161.5 -82v181h-512v77h1918v-77h-148v-181z
M211.5 218.5q40.5 -40.5 113.5 -40.5t112 41.5t39 113.5t-40.5 113t-112.5 41t-112 -40.5t-40 -114t40.5 -114zM560 663v-179q50 81 160 81q77 0 131 -39t75 -107l22 1l1 4h41q78 12 98 60t20 179h-548zM1561 557h87v106h-455q-1 -95 -11.5 -151t-36.5 -88h210q7 71 64 102
t142 31z" />
    <glyph glyph-name="uF0254" unicode="&#xf0254;" horiz-adv-x="1943" 
d="M1979 740v-77h-130v-663h-86v421h-144q-92 0 -145.5 -41.5t-53.5 -130.5t45 -133.5t146 -44.5v-73h-13q-132 0 -198.5 66.5t-66.5 183.5q0 58 17 104h-409v-141q0 -136 107 -136q59 0 83.5 38.5t23.5 113.5h86q2 -108 -46 -168.5t-144.5 -60.5t-146.5 58t-50 156v120
q0 73 -39 114.5t-111 41.5t-108 -45.5t-36 -127.5v-315h-84v183q-54 -81 -161 -81t-168.5 64.5t-61.5 166t61 166.5t168.5 65t161.5 -82v181h-512v77h2015zM211.5 218.5q40.5 -40.5 113.5 -40.5t112 41.5t39 113.5t-40.5 113t-112.5 41t-112 -40.5t-40 -114t40.5 -114z
M560 663v-179q50 81 160 81q77 0 131 -39t75 -107q14 0 38 2l1 3h25q61 9 90 45t29 194h-549zM1763 497v166h-569q-1 -95 -11.5 -151t-36.5 -88h250q74 73 223 73h144z" />
    <glyph glyph-name="uF0255" unicode="&#xf0255;" horiz-adv-x="1941" 
d="M1977 740v-77h-130v-663h-86v281l-250 -287h-102q117 128 192 210h-9q-78 0 -129 39t-72 109h-449v-141q0 -136 107 -136q59 0 83 38.5t24 113.5h85q2 -108 -46 -168.5t-144 -60.5t-146 58t-50 156v120h-1q0 73 -39 114.5t-111 41.5t-108 -45.5t-36 -127.5v-315h-84v183
q-54 -81 -161 -81t-168.5 64.5t-61.5 166t61 166.5t168.5 65t161.5 -82v181h-512v77h2013zM211.5 218.5q40.5 -40.5 113.5 -40.5t112 41.5t39 113.5t-40.5 113t-112.5 41t-112 -40.5t-40 -114t40.5 -114zM560 663v-179q50 81 160 81q77 0 131 -39t75 -107q15 0 39 2l1 3h25
q78 12 98 60t20 179h-549zM1378 450v213h-183q-2 -96 -12.5 -151.5t-36.5 -87.5h233q-1 9 -1 26zM1464 663v-211q0 -175 149 -175q66 0 107 46t41 117v223h-297z" />
    <glyph glyph-name="uF0256" unicode="&#xf0256;" horiz-adv-x="2570" 
d="M2606 663h-265v-155q80 -14 120 -76t40 -161q0 -124 -74 -193.5t-199 -58.5v78q92 -7 139.5 40t47.5 135q0 162 -123 162q-137 0 -128 -208h-82q9 208 -128 208q-123 0 -123 -162q0 -88 47.5 -135t139.5 -40v-78q-117 -10 -189.5 50t-82.5 171q-50 -40 -125 -40
q-170 0 -212 152h-467v-141q0 -136 107 -136q59 0 83 38.5t24 113.5h85q2 -108 -46 -168.5t-144 -60.5t-146 58t-50 156v120h-1q0 73 -39 114.5t-111 41.5t-108 -45.5t-36 -127.5v-315h-84v183q-54 -81 -161 -81t-168.5 64.5t-61.5 166t61 166.5t168.5 65t161.5 -82v181
h-512v77h2642v-77zM211.5 218.5q40.5 -40.5 113.5 -40.5t112 41.5t39 113.5t-40.5 113t-112.5 41t-112 -40.5t-40 -114t40.5 -114zM560 663v-179q50 81 160 81q77 0 131 -39t75 -107q15 0 39 2l1 3h25q78 12 98 60t20 179h-549zM1397 454v209h-202q-2 -96 -12.5 -151.5
t-36.5 -87.5h252q-1 10 -1 30zM2256 663h-773v-207q0 -179 143 -179q54 0 83.5 21.5t46.5 65.5q18 71 66.5 109.5t120 38.5t117.5 -31.5t64 -89.5q28 100 132 114v158z" />
    <glyph glyph-name="uF0257" unicode="&#xf0257;" horiz-adv-x="1581" 
d="M1613 740v-77h-131v-663h-84v203q-48 -64 -147 -64q-11 0 -31 2q-22 -69 -84 -106t-154 -37t-155.5 49t-79.5 137q-56 -45 -142 -45q-23 0 -44 3q-22 -69 -84.5 -106.5t-148.5 -37.5q-113 0 -179 64t-66 176v169h35q53 0 78.5 4.5t43.5 24t22.5 52t4.5 96.5v79h-304v77
h1650zM169 236q0 -161 158 -161q62 0 102 24.5t53 70.5q-90 55 -90 174q0 95 59.5 149.5t157.5 54.5q77 0 130 -37.5t71 -102.5q75 3 96 34t21 142v79h-574v-80q0 -140 -37.5 -189.5t-146.5 -52.5v-105zM510.5 248.5q36.5 -35.5 98.5 -35.5t98 35t36 96t-36 95.5t-97.5 34.5
t-98.5 -35t-37 -95t36.5 -95.5zM829 236q0 -161 158 -161q127 0 154 94q-89 57 -89 175q0 90 55.5 147t150.5 57t140 -61v176h-386v-80q0 -140 -37.5 -189.5t-145.5 -52.5v-105zM1170.5 248.5q36.5 -35.5 96.5 -35.5t95 35.5t35 95.5t-35 95t-95 35t-96.5 -35t-36.5 -95
t36.5 -95.5z" />
    <glyph glyph-name="uF0258" unicode="&#xf0258;" horiz-adv-x="1344" 
d="M1379 740v-77h-130v-663h-86v421h-143q-92 0 -146 -41.5t-54 -130.5t45 -133.5t146 -44.5v-73h-13q-111 0 -175.5 47.5t-82.5 132.5q-55 -39 -134 -39q-26 0 -46 4q-22 -70 -84 -107.5t-149 -37.5q-113 0 -179 64t-66 176v169h35q53 0 78.5 4t44 23.5t23 52.5t4.5 97v79
h-303v77h1415zM705.5 439q-36.5 35 -97.5 35t-97.5 -35t-36.5 -95t36.5 -95.5t92.5 -35.5t91 25q48 36 48 101t-36.5 100zM1163 497v166h-811v-80q0 -140 -37.5 -189.5t-146.5 -52.5v-105q0 -161 159 -161q61 0 101.5 25t52.5 71q-90 53 -90 173q0 95 59 149.5t156 54.5
q71 0 122 -31.5t73 -88.5q75 69 218 69h144z" />
    <glyph glyph-name="uF0259" unicode="&#xf0259;" horiz-adv-x="1333" 
d="M1368 740v-77h-130v-663h-86v421h-143q-92 0 -146 -41.5t-54 -130.5t45 -133.5t146 -44.5v-73h-13q-111 0 -175.5 47.5t-82.5 132.5q-56 -39 -135 -39q-26 0 -46 4q-22 -70 -84 -107.5t-149 -37.5q-112 0 -178.5 64t-66.5 176v169h35q53 0 78.5 4t44 23.5t23 52.5t4.5 97
v79h-305v77h1418zM498.5 248.5q36.5 -35.5 97.5 -35.5t97.5 35.5t36.5 95.5t-36.5 95t-97.5 35t-97.5 -35t-36.5 -95t36.5 -95.5zM1152 497v166h-812v-80q0 -140 -37.5 -189.5t-146.5 -52.5v-105q0 -161 159 -161q61 0 101.5 25t52.5 71q-89 55 -89 173q0 95 58.5 149.5
t155.5 54.5q71 0 122.5 -31.5t74.5 -87.5q75 68 217 68h144zM276 -81.5q17 17.5 41.5 17.5t41.5 -17.5t17 -41.5t-17 -41t-41.5 -17t-41.5 17t-17 41t17 41.5z" />
    <glyph glyph-name="uF025A" unicode="&#xf025a;" horiz-adv-x="1463" 
d="M1499 740v-77h-130v-663h-86v413h-207q63 -38 63 -124.5t-53 -137.5t-140 -51q-61 0 -109.5 26t-73.5 72q-57 -59 -157 -59q-26 0 -46 4q-22 -70 -84 -107.5t-149 -37.5q-113 0 -179 64t-66 176v169h34q73 0 108 15q20 9 28 30q15 43 15 132v79h-303v77h1535z
M510.5 248.5q36.5 -35.5 97.5 -35.5t97.5 35.5t36.5 95.5t-36.5 95t-97.5 35t-97.5 -35t-36.5 -95t36.5 -95.5zM857.5 206q35.5 -30 86 -30t83.5 31t33 85.5t-31.5 86.5t-84.5 32t-87.5 -31t-34.5 -87.5t35.5 -86.5zM1283 487v176h-931v-80q0 -140 -37.5 -189.5
t-146.5 -52.5v-105q0 -161 159 -161q61 0 101.5 25t52.5 71q-90 53 -90 173q0 95 59 149.5t156 54.5q69 0 119 -29.5t73 -82.5q60 51 170 51h315z" />
    <glyph glyph-name="uF025B" unicode="&#xf025b;" horiz-adv-x="1469" 
d="M1505 740v-77h-130v-663h-86v380h-183v-59q0 -220 -181 -220q-55 0 -99.5 24.5t-67.5 67.5q-56 -54 -152 -54q-26 0 -46 4q-22 -70 -84 -107.5t-149 -37.5q-113 0 -179 64t-66 176v169h35q53 0 78.5 4.5t44 24t23 52t4.5 96.5v79h-303v77h1541zM168 236q0 -161 159 -161
q62 0 101.5 25t52.5 71q-90 53 -90 173q0 95 59 149.5t156 54.5q75 0 127 -34t72 -96q59 36 166 36h52v209h-671v-80q0 -140 -37.5 -189.5t-146.5 -52.5v-105zM510.5 248.5q36.5 -35.5 97.5 -35.5t97.5 35.5t36.5 95.5t-36.5 95t-97.5 35t-97.5 -35t-36.5 -95t36.5 -95.5z
M1023 320v60h-58q-70 0 -107.5 -22.5t-37.5 -73.5t29.5 -79t80.5 -28t72 35.5t21 107.5zM1289 454v209h-183v-209h183z" />
    <glyph glyph-name="uF025C" unicode="&#xf025c;" horiz-adv-x="1469" 
d="M1505 740v-77h-130v-663h-86v380h-183v-59q0 -220 -181 -220q-54 0 -98.5 24.5t-67.5 66.5q-59 -53 -153 -53q-26 0 -46 4q-22 -70 -84 -107.5t-149 -37.5q-113 0 -179 64t-66 176v169h35q53 0 78.5 4.5t44 24t23 52t4.5 96.5v79h-305v77h1543zM168 236q0 -161 159 -161
q62 0 101.5 25t52.5 71q-90 53 -90 173q0 95 59 149.5t156 54.5q74 0 127 -34t74 -95q57 35 164 35h52v209h-671v-80q0 -140 -37.5 -189.5t-146.5 -52.5v-105zM510.5 248.5q36.5 -35.5 97.5 -35.5t97.5 35.5t36.5 95.5t-36.5 95t-97.5 35t-97.5 -35t-36.5 -95t36.5 -95.5z
M1023 320v60h-58q-70 0 -107.5 -22.5t-37.5 -73.5t29.5 -79t80.5 -28t72 35.5t21 107.5zM1289 454v209h-183v-209h183zM328 -64q24 0 41.5 -17.5t17.5 -41.5t-17.5 -41t-41.5 -17t-41.5 17t-17.5 41t17.5 41.5t41.5 17.5z" />
    <glyph glyph-name="uF025D" unicode="&#xf025d;" horiz-adv-x="1396" 
d="M1432 740v-77h-130v-663h-86v216q-27 -50 -79 -80t-124 -30q-159 0 -228 118q-57 -85 -179 -85q-26 0 -46 4q-22 -70 -84 -107.5t-149 -37.5q-113 0 -179 64t-66 176v169h32q69 0 93 8t33 18.5t16 32.5q11 33 11 118v79h-303v77h1468zM510.5 248.5q36.5 -35.5 97.5 -35.5
t97.5 35.5t36.5 95.5t-36.5 95t-97.5 35t-97.5 -35t-36.5 -95t36.5 -95.5zM168 236q0 -161 159 -161q61 0 101.5 25t52.5 71q-90 53 -90 173q0 95 59 149.5t156 54.5q64 0 112.5 -26t74.5 -73q87 6 111 39q9 14 14.5 25t7.5 33q4 32 4 86v31h-578v-80q0 -140 -37.5 -189.5
t-146.5 -52.5v-105zM1015 663v-33q0 -63 -6 -102t-25 -72.5t-56.5 -49.5t-98.5 -20q-2 -92 49.5 -147.5t142.5 -55.5t143 60.5t52 157.5v262h-201z" />
    <glyph glyph-name="uF025E" unicode="&#xf025e;" horiz-adv-x="1396" 
d="M1432 740v-77h-130v-663h-86v216q-27 -50 -79 -80t-124 -30q-156 0 -227 117q-58 -84 -180 -84q-26 0 -46 4q-22 -70 -84 -107.5t-149 -37.5q-113 0 -179 64t-66 176v169h32q69 0 93 8t33 18.5t16 32.5q11 33 11 118v79h-305v77h1470zM510.5 248.5q36.5 -35.5 97.5 -35.5
t97.5 35.5t36.5 95.5t-36.5 95t-97.5 35t-97.5 -35t-36.5 -95t36.5 -95.5zM168 236q0 -161 159 -161q61 0 101.5 25t52.5 71q-90 53 -90 173q0 95 59 149.5t156 54.5q134 0 189 -99q70 5 105 35q24 19 28 84q2 21 2 64v31h-578v-80q0 -140 -37.5 -189.5t-146.5 -52.5v-105z
M1015 663v-33q0 -63 -6 -102t-25 -72.5t-56.5 -49.5t-98.5 -20q-2 -92 49.5 -147.5t142.5 -55.5t143 60.5t52 157.5v262h-201zM329 -64q24 0 41.5 -17.5t17.5 -41.5t-17.5 -41t-41.5 -17t-41.5 17t-17.5 41t17.5 41.5t41.5 17.5z" />
    <glyph glyph-name="uF025F" unicode="&#xf025f;" horiz-adv-x="1336" 
d="M1371 740v-77h-130v-663h-84v183q-59 -89 -183 -89q-67 0 -119.5 30.5t-82.5 83.5q-55 -69 -165 -69q-27 0 -47 4q-21 -70 -83.5 -107.5t-149.5 -37.5q-113 0 -179 64t-66 176v169h34q54 0 79.5 4t44 23.5t23 52.5t4.5 97v79h-303v77h1407zM168 236q0 -161 159 -161
q61 0 101.5 25t52.5 71q-90 56 -90 173q0 95 59 149.5t156 54.5q118 0 174 -81q30 48 81 75t113 27q125 0 183 -89v183h-805v-80q0 -140 -37.5 -189.5t-146.5 -52.5v-105zM510.5 248.5q36.5 -35.5 97.5 -35.5t97.5 35.5t36.5 95.5t-36.5 95t-97.5 35t-97.5 -35t-36.5 -95
t36.5 -95.5zM1157 331v1q0 74 -45.5 117.5t-120.5 43.5t-119.5 -43.5t-44.5 -118t44.5 -118t119.5 -43.5t120.5 43.5t45.5 117.5z" />
    <glyph glyph-name="uF0260" unicode="&#xf0260;" horiz-adv-x="1336" 
d="M1372 740v-77h-130v-663h-85v182q-58 -88 -182 -88q-67 0 -119.5 30t-81.5 83q-59 -68 -167 -68q-27 0 -47 4q-21 -70 -83.5 -107.5t-149.5 -37.5q-113 0 -179 64t-66 176v169h34q54 0 79.5 4t44 23.5t23 52.5t4.5 97v79h-305v77h1410zM168 236q0 -161 159 -161
q61 0 101.5 25t52.5 71q-90 56 -90 173q0 95 59 149.5t156 54.5q119 0 175 -80q31 47 81 74t113 27q124 0 182 -88v182h-805v-80q0 -140 -37.5 -189.5t-146.5 -52.5v-105zM510.5 248.5q36.5 -35.5 97.5 -35.5t97.5 35.5t36.5 95.5t-36.5 95t-97.5 35t-97.5 -35t-36.5 -95
t36.5 -95.5zM1157 331v1q0 74 -45 117.5t-120 43.5t-119.5 -43.5t-44.5 -118t44.5 -118t119.5 -43.5t120 43.5t45 117.5zM328 -64q24 0 41 -17.5t17 -41.5t-17 -41t-41 -17t-41.5 17t-17.5 41t17.5 41.5t41.5 17.5z" />
    <glyph glyph-name="uF0261" unicode="&#xf0261;" horiz-adv-x="1430" 
d="M1249 740h217v-77h-131v-663h-86v740zM-36 740h905q31 9 69 9q94 0 151 -56t57 -144q0 -124 -78 -173q-73 -45 -194 -47q-3 0 -45 2v-130q0 -126 109 -126q62 0 85 36.5t24 110.5h86q-4 -224 -194 -224q-87 0 -137 48q-57 53 -57 151q-18 -26 -56.5 -42t-73.5 -16t-55 4
q-21 -70 -83.5 -107.5t-149.5 -37.5q-113 0 -179 64t-66 176v169h35q73 0 108 15q19 9 27 30q15 39 15 132v79h-303v77zM510 248q36 -35 98 -35t98 35.5t36 95.5q0 130 -136 130q-61 0 -96.5 -35t-35.5 -95.5t36 -95.5zM168 236q0 -161 159 -161q62 0 102.5 25.5t52.5 72.5
q-91 57 -91 171q0 95 58.5 149.5t155.5 54.5q77 0 131 -38t71 -107h31q135 0 180 37q42 36 42 101.5t-32 98.5t-89 33q-99 0 -115 -89h-88q6 43 28 79h-412v-80q0 -140 -37.5 -189.5t-146.5 -52.5v-105z" />
    <glyph glyph-name="uF0262" unicode="&#xf0262;" horiz-adv-x="1446" 
d="M1264 740h216v-77h-130v-663h-86v740zM-38 740h919q31 9 69 9q94 0 151 -56.5t57 -145.5q0 -119 -70.5 -166t-199.5 -49q-19 0 -59 2v-133q0 -62 30.5 -94t89.5 -32t85 37.5t27 109.5h86q-4 -224 -201 -224q-88 0 -142 47.5t-61 133.5q-55 -40 -137 -40q-26 0 -46 4
q-22 -70 -84 -107.5t-149 -37.5q-113 0 -179 64t-66 176v169h34q73 0 108 15q20 9 28 30q15 43 15 132v79h-305v77zM510.5 248.5q36.5 -35.5 97.5 -35.5t97.5 35.5t36.5 95.5t-36.5 95t-97.5 35t-97.5 -35t-36.5 -95t36.5 -95.5zM851 406q136 0 180 36q41 33 41 98.5t-33 99
t-87 33.5t-84.5 -25t-36.5 -67h-84q4 44 28 82h-423v-80q0 -140 -37.5 -189.5t-146.5 -52.5v-105q0 -161 159 -161q62 0 101.5 25t52.5 71q-90 53 -90 173q0 95 59 149.5t146.5 54.5t142 -37.5t72.5 -104.5h40zM327 -64q24 0 41.5 -17.5t17.5 -41.5t-17.5 -41.5t-41.5 -17.5
t-41 17.5t-17 41.5t17 41.5t41 17.5z" />
    <glyph glyph-name="uF0263" unicode="&#xf0263;" horiz-adv-x="1458" 
d="M1493 740v-77h-130v-663h-86v352h-448v-141q0 -136 107 -136q59 0 83 38.5t24 113.5h85q2 -108 -46 -168.5t-139.5 -60.5t-140.5 48t-58 132q-54 -39 -136 -39q-28 0 -48 4q-21 -70 -83.5 -107.5t-149.5 -37.5q-113 0 -179 64t-66 176v169h35q53 0 78.5 4.5t44 24t23 52
t4.5 96.5v79h-303v77h1529zM168 236q0 -161 159 -161q61 0 101.5 25t52.5 71q-90 55 -90 173q0 95 60 149.5t157 54.5q75 0 128 -34t73 -95q43 3 45 3l1 2h18q77 11 100 57t23 158v24h-644v-80q0 -140 -37.5 -189.5t-146.5 -52.5v-105zM510.5 248.5q36.5 -35.5 97.5 -35.5
t97.5 35.5t36.5 95.5t-36.5 95t-97.5 35t-97.5 -35t-36.5 -95t36.5 -95.5zM1277 424v239h-195v-25q0 -157 -50 -214h245zM327 -64q24 0 41.5 -17.5t17.5 -41.5t-17.5 -41.5t-41.5 -17.5t-41 17.5t-17 41.5t17 41.5t41 17.5z" />
    <glyph glyph-name="uF0264" unicode="&#xf0264;" horiz-adv-x="1102" 
d="M1138 740v-77h-131v-663h-86v663h-202v-242q0 -100 -34.5 -149.5t-117.5 -49.5q-160 0 -154 196h85q0 -59 13 -89t57 -30q46 0 58 37q10 28 10 84v243h-305v-242q0 -100 -34.5 -149.5t-117.5 -49.5q-160 0 -154 196h85q0 -59 13 -89t57 -30q46 0 58 37q10 28 10 84v243
h-284v77h1174z" />
    <glyph glyph-name="uF0265" unicode="&#xf0265;" horiz-adv-x="1110" 
d="M1146 740v-77h-131v-663h-86v202q-64 -95 -213 -95q-93 0 -159.5 47.5t-66.5 134.5q0 54 28 92.5t74 57.5v6q-50 23 -67.5 66.5t-17.5 122.5v29h-176v-242q0 -100 -34.5 -149.5t-117.5 -49.5q-160 0 -154 196h85q0 -59 13 -89t57 -30q46 0 58 37q10 28 10 84v243h-284v77
h1182zM929 356v307h-335v-29q0 -87 26 -121.5t104 -34.5h36v-75h-36q-66 0 -107 -28t-41 -83.5t44.5 -82t119.5 -26.5t132 47t57 126z" />
    <glyph glyph-name="uF0266" unicode="&#xf0266;" horiz-adv-x="1262" 
d="M1298 740v-77h-131v-663h-86v440h-181v-74q0 -117 -36 -185q-42 -77 -161 -77q-122 0 -163 79q-37 69 -37 183v148h86v-125q0 -137 26 -171q29 -37 88 -37q60 0 87 37q21 30 24 102q1 24 1 69v125h266v149h-750v-242q0 -100 -34.5 -149.5t-117.5 -49.5q-160 0 -154 196
h85q0 -59 13 -89t57 -30q46 0 58 37q10 28 10 84v243h-284v77h1334z" />
    <glyph glyph-name="uF0267" unicode="&#xf0267;" horiz-adv-x="1280" 
d="M1316 740v-77h-131v-663h-86v663h-177v-255q0 -240 -201.5 -240t-201.5 240v255h-188v-242q0 -100 -34.5 -149.5t-117.5 -49.5q-160 0 -154 196h85q0 -59 13 -89t57 -30q46 0 58 37q10 28 10 84v243h-284v77h1352zM837 406v257h-233v-257q0 -80 25 -120.5t92 -40.5
t91.5 40.5t24.5 120.5z" />
    <glyph glyph-name="uF0268" unicode="&#xf0268;" horiz-adv-x="1008" 
d="M888 483h-114q-165 0 -205 -81q-16 -33 -16 -81q0 -75 43.5 -113t111.5 -38q140 0 140 124h78v-294h-86v146q-39 -52 -140 -52t-167.5 61.5t-66.5 175.5t79.5 172t216.5 58h40v102h-471v-242q0 -100 -34.5 -149.5t-117.5 -49.5q-160 0 -154 196h85q0 -59 13 -89t57 -30
q46 0 58 37q10 28 10 84v243h-284v77h1072v-77h-148v-180z" />
    <glyph glyph-name="uF0269" unicode="&#xf0269;" horiz-adv-x="1117" 
d="M1152 740v-77h-130v-663h-86v195q-31 -44 -87.5 -68t-137.5 -24t-147.5 47.5t-66.5 131.5q0 104 105 143v6q-47 18 -77.5 58.5t-30.5 89t17 84.5h-180v-242q0 -100 -34.5 -149.5t-117.5 -49.5q-160 0 -154 196h85q0 -59 13 -89t57 -30q46 0 58 37q10 28 10 84v243h-284
v77h637q27 10 63 10q82 0 126.5 -51t39.5 -133h-76q2 49 -20 78t-65.5 29t-68 -24t-24.5 -66q0 -61 43 -90.5t113 -29.5h51v-74h-46q-68 0 -111 -24.5t-43 -78.5t45.5 -80.5t119 -26.5t131 48.5t57.5 127.5v385h216z" />
    </font>
</defs>
</svg>
